[ Сегодня на трекере фрилич! Идет свободное скачивание без начисления Download ]

Люди Икс: Апокалипсис / X-Men: Apocalypse (2016) ТС 720р | D | Line

 

Создавать темы 01-Июл-2016 16:06

Информация о фильме
Название: Люди Икс: Апокалипсис
Оригинальное название: X-Men: Apocalypse
Год выхода: 2016
Жанр: фантастика, боевик, приключения
Режиссер: Брайан Сингер
В ролях: Майкл Фассбендер, Дженнифер Лоуренс, Джеймс МакЭвой, Эван Питерс, Николас Хоулт, Ченнинг Татум, Оскар Айзек, Александра Шипп, Тай Шеридан, Софи Тернер, Лана Кондор, Оливия Манн, Роуз Бирн, Хью Джекмен, Коди Смит-МакФи, Брендан Педдер
О фильме:
События «Дней Минувшего Будущего» оказали колоссальное влияние на мир, где мутанты и люди борются за свое место под Солнцем. В это нелегкое время Людям Икс предстоит столкнуться со своим самым опасным противником — древним мутантом Апокалипсисом, существом, схватка с которым может стать последней не только для мутантов, но и в принципе для всего человечества. В поисках способа победы над неуязвимым и бессмертным монстром Людям Икс предстоит узнать больше о происхождении своего вида. Но Апокалипсис неимоверно силен, и вероятность победы все уменьшается, ведь он твердо убежден, что только сильнейшие имеют право на выживание…

Страна: США
Студия: 20th Century Fox Film Corporation, Bad Hat Harry Productions, Donners' Company Kinberg Genre,
Marvel Entertainment, Mel's Cite du Cinema, TSG Entertainment
Продолжительность: 02:23:58
Перевод: Дублированный [Чистый звук]
Файл
Кодек: H.264
Качество: Telecine 720p
Видео: AVC, 1280x528 (2.40:1), 29.970 fps ~ 1848 Kbps
Звук: AC3, 48.0 KHz 2 ch ~ 192 Kb/s
Присутствуют вставки звука с TS (около 10 минут)
Субтитры: китайские (вшитые неотключаемые), русские форсированые (на надписи и иностранную речь)-Семпл-

Доп. информация:

Работа со звуком и набивка субтитров: messafan
За предоставленный исходник спасибо SergeyVideoGid

MI:

Общее
Уникальный идентификатор : 206887040911715529761022489666809768039 (0x9BA4FEA5F42C2629B7AF67B77D342867)
Полное имя : Q:TorFX-Men.Apocalypse.2016.720p.HDTC.DUB.Line.mkv
Формат : Matroska
Версия формата : Version 4 / Version 2
Размер файла : 2,05 Гбайт
Продолжительность : 2 ч. 23 м.
Общий поток : 2042 Кбит/сек
Название фильма : X-Men Apocalypse 2016 - release by messafan for PB.WTF
Дата кодирования : UTC 2016-06-09 22:12:03
Программа кодирования : mkvmerge v6.7.0 ('Back to the Ground') 64bit built on Jan 8 2014 15:10:52
Библиотека кодирования : libebml v1.3.0 + libmatroska v1.4.1
Видео
Идентификатор : 1
Формат : AVC
Формат/Информация : Advanced Video Codec
Профиль формата : [email protected]
Параметр CABAC формата : Да
Параметр ReFrames формата : 5 кадров
Идентификатор кодека : V_MPEG4/ISO/AVC
Продолжительность : 2 ч. 23 м.
Битрейт : 1848 Кбит/сек
Ширина : 1280 пикселей
Высота : 528 пикселей
Соотношение сторон : 2,40:1
Частота кадров : 29,970 кадров/сек
Цветовое пространство : YUV
Субдискретизация насыщенности : 4:2:0
Битовая глубина : 8 бит
Тип развёртки : Прогрессивная
Бит/(Пиксели*Кадры) : 0.091
Размер потока : 1,82 Гбайт (89%)
Заголовок : X-Men.Apocalypse.2016.720p.HDTC.DD5.1.x264-BDP
Библиотека кодирования : x264 core 148 r2638 7599210
Настройки программы : cabac=1 / ref=5 / deblock=1:-3:-3 / analyse=0x3:0x113 / me=umh / subme=7 / psy=1 / psy_rd=1.00:0.00 / mixed_ref=1 / me_range=24 / chroma_me=1 / trellis=1 / 8x8dct=1 / cqm=0 / deadzone=21,11 / fast_pskip=1 / chroma_qp_offset=-2 / threads=12 / lookahead_threads=2 / sliced_threads=0 / nr=0 / decimate=1 / interlaced=0 / bluray_compat=0 / constrained_intra=0 / bframes=3 / b_pyramid=2 / b_adapt=2 / b_bias=0 / direct=1 / weightb=1 / open_gop=0 / weightp=2 / keyint=300 / keyint_min=29 / scenecut=40 / intra_refresh=0 / rc_lookahead=40 / rc=2pass / mbtree=1 / bitrate=1848 / ratetol=1.0 / qcomp=0.60 / qpmin=0 / qpmax=69 / qpstep=4 / cplxblur=20.0 / qblur=0.5 / vbv_maxrate=62500 / vbv_bufsize=78125 / nal_hrd=none / filler=0 / ip_ratio=1.40 / aq=1:1.00
Default : Да
Forced : Нет
Основные цвета : BT.709-5, BT.1361, IEC 61966-2-4, SMPTE RP177
Характеристики трансфера : BT.709-5, BT.1361
Коэффициенты матрицы : BT.709-5, BT.1361, IEC 61966-2-4 709, SMPTE RP177
Аудио
Идентификатор : 2
Формат : AC-3
Формат/Информация : Audio Coding 3
Расширение режима : CM (complete main)
Идентификатор кодека : A_AC3
Продолжительность : 2 ч. 23 м.
Вид битрейта : Постоянный
Битрейт : 192 Кбит/сек
Каналы : 2 канала
Расположение каналов : Front: L R
Частота : 48,0 КГц
Битовая глубина : 16 бит
Метод сжатия : С потерями
Размер потока : 198 Мбайт (9%)
Заголовок : Rus DUB line DD2.0 @ 1920kbps
Язык : Russian
Default : Да
Forced : Нет
Текст
Идентификатор : 3
Формат : UTF-8
Идентификатор кодека : S_TEXT/UTF8
Идентификатор кодека/Информация : UTF-8 Plain Text
Заголовок : Forced rus
Язык : Russian
Default : Да
Forced : Да

Скриншоты

Релиз от:
Яндекс.Метрика
Рейтинг@Mail.ru