[ Сегодня на трекере фрилич! Идет свободное скачивание без начисления Download ]

Дофус – Книга 1: Джулит / Dofus - Livre 1: Julith (2015) НDRip | L1

 

Создавать темы 30-Июн-2016 14:12

-Дофус – Книга 1: Джулит / Dofus - Livre 1: Julith (2015) НDRip | L1-Дофус – Книга 1: Джулит / Dofus - Livre 1: Julith
Страна: Франция
Производство: Ankama Animations, CNC, France 3 Cinema, Pictanovo Nord-Pas-de-Calais
Год выпуска: 2015
Жанр: мультфильм, фэнтези, комедия, приключения
Продолжительность: 01:47:53
Режиссеры: Жан-Жак Дени, Энтони Ру
Автор сценария: Энтони Ру
В ролях: Сован Деланоэ, Жан-Клод Донда, Эммануэль Гради, Летиция Лефевр, Франсуа Сьенер-Описание: В антикварном магазине бывалого путешественника Керуба Крепина — как в пещере сокровищ. Здесь можно найти немало древних вещей, в числе которых оружие, амулеты, артефакты, некоторые из которых — настоящая драгоценность, а некоторые даже наполнены волшебной силой. Десятилетний приёмный сын Керубима мальчик по имени Жорис абсолютно счастлив, однако спокойная жизнь прекращается после того, как Жорис задумал отыскать своего кумира, суперзвезду Гоббоула: именно в этот момент в городе появляется коварная и мстительная ведьма Джулит…- -Перевод: Любительский (одноголосый, закадровый)
Субтитры: нет-Качество: НDRip
Формат: АVI
Видео кодек: XviD
Аудио кодек: АС3
Видео: 720x384 (1.85:1), 25.000 fps, XviD ~1 627 kbps avg
Аудио: 48.0 kHz, AC3 Dolby Digital, 2/0 (L,R) ch, ~192.00 kbps
Дата премьеры (мир): 7 ноября 2015

Media Info

General
Format : AVI
Format/Info : Audio Video Interleave
Overall bit rate : 1 830 Kbps
Writing application : VirtualDubMod 1.5.10.2 (build 2540/release)
Writing library : VirtualDubMod build 2540/release
Video
ID : 0
Format : MPEG-4 Visual
Format profile : Advanced [email protected]
Format settings, BVOP : 2
Format settings, QPel : No
Format settings, GMC : No warppoints
Format settings, Matrix : Default (MPEG)
Codec ID : XVID
Codec ID/Hint : XviD
Bit rate : 1 627 Kbps
Width : 720 pixels
Height : 384 pixels
Display aspect ratio : 1.85:1
Frame rate : 25.000 fps
Color space : YUV
Chroma subsampling : 4:2:0
Bit depth : 8 bits
Scan type : Progressive
Compression mode : Lossy
Bits/(Pixel*Frame) : 0.235
Stream size : 10.6 MiB (89%)
Writing library : XviD 1.2.1 (UTC 2008-12-04)
Audio
ID : 1
Format : AC-3
Format/Info : Audio Coding 3
Mode extension : CM (complete main)
Format settings, Endianness : Big
Codec ID : 2000
Bit rate mode : Constant
Bit rate : 192 Kbps
Channel(s) : 2 channels
Channel positions : Front: L R
Sampling rate : 48.0 KHz
Compression mode : Lossy
Stream size : 1.25 MiB (10%)
Alignment : Split accross interleaves
Interleave, duration : 40 ms (1.01 video frame)
Interleave, preload duration : 500 ms

Скриншоты

Яндекс.Метрика
Рейтинг@Mail.ru