[ Сегодня на трекере фрилич! Идет свободное скачивание без начисления Download ]

Я - Сэм / I Am Sam (2001) BDRip | КПК

 

Создавать темы 28-Июн-2016 21:57

-Я - Сэм / I Am Sam (2001) BDRip | КПК-Название: Я – Сэм
Оригинальное название: I Am Sam
Год выпуска: 2001
Страна: США
Жанр: Драма
Режиссёр: Джесси Нельсон,
В ролях: Шон Пенн, Мишель Пфайффер, Дакота Фаннинг, Дайэнн Уист, Лоретта Дивайн, Ричард Шифф, Лора Дерн, Брэд Силверман, Джозеф Розенберг, Стэнли ДеСанти
Продолжительность: 02:12:18
Перевод: Профессиональный (многоголосый закадровый)
Субтитры: Нет-Описание:
Сэм Доусон, 40-летний мужчина с уровнем интеллекта 7-летнего ребёнка, работающий официантом. Ему трудно было бы выжить с такими данными, если бы не дочь, плод случайной связи. Люси выросла вполне нормальным человеком и могла бы заботиться о своём отце, но местная социальная служба забрала её у отца. Сэм хочет вернуть свою дочь. Для ведения этого дела он нанимает адвоката Риту Харрисон. По мере работы над этим делом Рита сама получает несколько уроков о том, что значит быть родителем…--Качество: BDRip
Формат: MP4
Видео кодек: AVC
Аудио кодек: AAC
Видео: 730 kbps, 640x352, 23.976 fps
Аудио: 128 kbps, 2 ch, 48,0 khz

Скриншоты:

Ми:

Complete name : E:Видеоmp4 640I Am Sam.mp4
Format : MPEG-4
Format profile : Base Media
Codec ID : isom
File size : 816 MiB
Duration : 2h 12mn
Overall bit rate mode : Variable
Overall bit rate : 862 Kbps
Encoded date : UTC 2016-06-27 13:18:32
Tagged date : UTC 2016-06-27 13:18:32
Video
ID : 1
Format : AVC
Format/Info : Advanced Video Codec
Format profile : [email protected]
Format settings, CABAC : Yes
Format settings, ReFrames : 7 frames
Codec ID : avc1
Codec ID/Info : Advanced Video Coding
Duration : 2h 12mn
Bit rate : 730 Kbps
Maximum bit rate : 3 990 Kbps
Width : 640 pixels
Height : 352 pixels
Display aspect ratio : 16:9
Frame rate mode : Constant
Frame rate : 23.976 fps
Color space : YUV
Chroma subsampling : 4:2:0
Bit depth : 8 bits
Scan type : Progressive
Bits/(Pixel*Frame) : 0.135
Stream size : 691 MiB (85%)
Writing library : x264 core 130 r2273 b3065e6
Encoding settings : cabac=1 / ref=7 / deblock=1:-1:-1 / analyse=0x3:0x133 / me=umh / subme=8 / psy=1 / psy_rd=1.00:0.10 / mixed_ref=1 / me_range=24 / chroma_me=1 / trellis=2 / 8x8dct=1 / cqm=0 / deadzone=21,11 / fast_pskip=0 / chroma_qp_offset=-3 / threads=3 / lookahead_threads=1 / sliced_threads=0 / nr=0 / decimate=1 / interlaced=0 / bluray_compat=0 / constrained_intra=0 / bframes=3 / b_pyramid=2 / b_adapt=2 / b_bias=0 / direct=3 / weightb=1 / open_gop=0 / weightp=2 / keyint=250 / keyint_min=23 / scenecut=40 / intra_refresh=0 / rc_lookahead=50 / rc=2pass / mbtree=1 / bitrate=730 / ratetol=1.0 / qcomp=0.60 / qpmin=0 / qpmax=69 / qpstep=4 / cplxblur=20.0 / qblur=0.5 / ip_ratio=1.40 / aq=1:1.00
Encoded date : UTC 2016-06-27 13:18:32
Tagged date : UTC 2016-06-27 13:19:31
Audio
ID : 2
Format : AAC
Format/Info : Advanced Audio Codec
Format profile : LC
Codec ID : 40
Duration : 2h 12mn
Bit rate mode : Variable
Bit rate : 128 Kbps
Maximum bit rate : 134 Kbps
Channel(s) : 2 channels
Channel positions : Front: L R
Sampling rate : 48.0 KHz
Compression mode : Lossy
Stream size : 121 MiB (15%)
Encoded date : UTC 2016-06-27 13:19:23
Tagged date : UTC 2016-06-27 13:19:31
Яндекс.Метрика
Рейтинг@Mail.ru