Новогодний "Голубой огонек" (2014.01.01) SATRip

 

Создавать темы 01-Янв-2014 00:26

- Новогодний "Голубой огонек" (2014.01.01) SATRip - Режиссер / Телекомпания: Россия
Русское название: Новогодний "Голубой огонек"
Год выпуска: 2013
Жанр: ТВ-Шоу
Выпущено: Россия
Описание:
Звездных имен на "Голубом огоньке" по традиции будет немало: Полина Гагарина, "Дискотека Авария", Алсу, Лев Лещенко, Николай Басков, Валерий Меладзе, Сергей Лазарев, Нюша, Диана Арбенина, Дима Билан, Любовь Казарновская, Елена Ваенга, Валерия, Юрий Антонов, София Ротару, Таисия Повалий, Натали, Вера Брежнева, Борис Моисеев, Глюкоза, Надежда Бабкина, Леонид Агутин, Анжелика Варум, Стас Михайлов, Ани Лорак, Лев Лещенко, Надежда Кадышева и "Золотое кольцо", Наташа Королева, Витас, Лайма Вайкуле, Александр Буйнов, Елена Степаненко, Сосо Павлиашвили, Стас Пьеха, Валерий Леонтьев, Игорь Крутой, Юлия Савичева, Юрий Гальцев и другие.
Продолжительность: 05:01:10
Видеокодек: DivX
Качество видео: SATRip
Битрейт видео: ~1750 kb/s
Размер кадра: 720 x 400
Аудиокодек: MP3, 2.0ch.
Битрейт аудио: 128 kb/s

MediaInfo:

Формат : AVI
Формат/Информация : Audio Video Interleave
Профиль формата : OpenDML
Размер файла : 3,97 Гбайт
Продолжительность : 5 ч. 1 м.
Общий поток : 1888 Кбит/сек
Библиотека кодирования : VirtualDub-MPEG2 build 24600/release
Видео
Идентификатор : 0
Формат : MPEG-4 Visual
Параметр BVOP формата : Да
Параметр QPel формата : Нет
Параметр GMC формата : Без точки перехода
Параметр матрицы формата : Default (H.263)
Идентификатор кодека : DX50
Идентификатор кодека/Подсказка : DivX 5
Продолжительность : 5 ч. 1 м.
Битрейт : 1750 Кбит/сек
Ширина : 720 пикселей
Высота : 400 пикселей
Соотношение сторон : 16:9
Частота кадров : 25,000 кадров/сек
Цветовое пространство : YUV
Субдискретизация насыщенности : 4:2:0
Битовая глубина : 8 бит
Тип развёртки : Прогрессивная
Метод сжатия : С потерями
Бит/(Пиксели*Кадры) : 0.243
Размер потока : 3,68 Гбайт (93%)
Библиотека кодирования : Intel(R) MPEG-4 encoder based on Intel(R) IPP 6.1 build 137.20[6.1.137.763]
Аудио
Идентификатор : 1
Формат : MPEG Audio
Версия формата : Version 1
Профиль формата : Layer 3
Режим : Joint stereo
Расширение режима : MS Stereo
Идентификатор кодека : 55
Идентификатор кодека/Подсказка : MP3
Продолжительность : 5 ч. 1 м.
Вид битрейта : Постоянный
Битрейт : 128 Кбит/сек
Каналы : 2 канала
Частота : 48,0 КГц
Метод сжатия : С потерями
Размер потока : 276 Мбайт (7%)
Выравнивание : Разделение по промежуткам
Продолжительность промежутка : 40 мс. (1,00 видеокадр)
Время предзагрузки промежутка : 500 мс.
Библиотека кодирования : LAME3.98.2
Скриншоты:
-
Время раздачи: 24/7. До первых 5 скачавших.
Яндекс.Метрика
Рейтинг@Mail.ru