[ Сегодня на трекере фрилич! Идет свободное скачивание без начисления Download ]

Бэтмен против Супермена: На заре справедливости / Batman v Superman: Dawn of Justice (2016) WEB-DL [H.264/1080p-LQ] [Line]

 

Создавать темы 28-Июн-2016 14:57

-Бэтмен против Супермена: На заре справедливости / Batman v Superman: Dawn of Justice (2016) WEB-DL [H.264/1080p-LQ] [Line] - Год выпуска: 2016
Производство: США / DC Entertainment, Dune Entertainment, Syncopy
Жанр: фантастика, боевик
Режиссер: Зак Снайдер
Актеры: Генри Кавилл, Бен Аффлек, Галь Гадот, Джейсон Момоа, Эми Адамс, Джесси Айзенберг, Джена Мэлоун, Эзра Миллер, Дайан Лэйн, Джереми Айронс
Описание: Опасаясь, что действия богоподобного супергероя так и останутся бесконтрольными, грозный и могущественный страж Готэм Сити бросает вызов самому почитаемому в наши дни спасителю Метрополиса, в то время как весь остальной мир решает, какой герой ему по-настоящему нужен. И пока Бэтмен и Супермен пребывают в состоянии войны друг с другом, возникает новая угроза, которая ставит человечество под самую большую опасность, с которой оно когда-либо сталкивалось.-Возраст: 16+ (зрителям, достигшим 16 лет)
Рейтинг MPAA: PG-13 (детям до 13 лет просмотр нежелателен)
Дата мировой премьеры: 23 марта 2016
Дата российской премьеры: 25 марта 2016

Продолжительность: 02:31:38
Качество видео: WEB-DL
Перевод: Дублированный (чистый звук)
Субтитры: Отсутствуют
Реклама: Отсутствует
Видео: AVC, 1916x796 (2.40:1), 23.976 fps, 4 400 Kbps (0.120 bit/pixel)
Аудио: AC-3, 48.0 KHz, 2 ch, 192 Kbps, CBR (Russian)
Аудио: AC-3, 48.0 KHz, 6 ch, 384 Kbps, CBR (English)

MediaInfo

Формат                                   : Matroska
Версия формата                           : Version 4 / Version 2
Размер файла                             : 5,38 Гбайт
Продолжительность                        : 2 ч. 31 м.
Общий поток                              : 5077 Кбит/сек
Дата кодирования                         : UTC 2016-06-28 09:31:12
Программа кодирования                    : mkvmerge v6.9.1 ('Blue Panther') 64bit built on Apr 18 2014 18:23:38
Библиотека кодирования                   : libebml v1.3.0 + libmatroska v1.4.1
Видео
Идентификатор                            : 1
Формат                                   : AVC
Формат/Информация                        : Advanced Video Codec
Профиль формата                          : [email protected]
Параметр CABAC формата                   : Да
Параметр ReFrames формата                : 5 кадров
Идентификатор кодека                     : V_MPEG4/ISO/AVC
Продолжительность                        : 2 ч. 31 м.
Битрейт                                  : 4400 Кбит/сек
Ширина                                   : 1916 пикселей
Высота                                   : 796 пикселей
Соотношение сторон                       : 2,40:1
Режим частоты кадров                     : Постоянный
Частота кадров                           : 23,976 кадра/сек
Цветовое пространство                    : YUV
Субдискретизация насыщенности            : 4:2:0
Битовая глубина                          : 8 бит
Тип развёртки                            : Прогрессивная
Бит/(Пиксели*Кадры)                      : 0.120
Размер потока                            : 4,66 Гбайт (87%)
Язык                                     : English
Default                                  : Да
Forced                                   : Нет
Цветовой диапазон                        : Limited
Основные цвета                           : BT.709
Характеристики трансфера                 : BT.709
Коэффициенты матрицы                     : BT.709
Аудио #1
Идентификатор                            : 2
Формат                                   : AC-3
Формат/Информация                        : Audio Coding 3
Расширение режима                        : CM (complete main)
Параметр Endianness формата              : Big
Идентификатор кодека                     : A_AC3
Продолжительность                        : 2 ч. 31 м.
Вид битрейта                             : Постоянный
Битрейт                                  : 192 Кбит/сек
Каналы                                   : 2 канала
Расположение каналов                     : Front: L R
Частота                                  : 48,0 КГц
Битовая глубина                          : 16 бит
Метод сжатия                             : С потерями
Размер потока                            : 208 Мбайт (4%)
Заголовок                                : line
Язык                                     : Russian
Default                                  : Да
Forced                                   : Нет
Аудио #2
Идентификатор                            : 3
Формат                                   : AC-3
Формат/Информация                        : Audio Coding 3
Расширение режима                        : CM (complete main)
Параметр Endianness формата              : Big
Идентификатор кодека                     : A_AC3
Продолжительность                        : 2 ч. 31 м.
Вид битрейта                             : Постоянный
Битрейт                                  : 384 Кбит/сек
Каналы                                   : 6 каналов
Расположение каналов                     : Front: L C R, Side: L R, LFE
Частота                                  : 48,0 КГц
Битовая глубина                          : 16 бит
Метод сжатия                             : С потерями
Размер потока                            : 416 Мбайт (8%)
Язык                                     : English
Default                                  : Нет
Forced                                   : Нет
Меню
00:00:00.000                             : en:1
00:09:48.000                             : en:2
00:20:45.000                             : en:3
00:29:58.000                             : en:4
00:38:46.000                             : en:5
00:49:25.000                             : en:6
00:59:21.000                             : en:7
01:10:06.000                             : en:8
01:21:14.000                             : en:9
01:30:00.000                             : en:10
01:38:20.000                             : en:11
01:49:57.000                             : en:12
02:01:48.000                             : en:13
02:10:40.000                             : en:14
02:18:41.000                             : en:15
02:23:50.000                             : en:16

Дополнительная информация

  • В основу фильма легли комиксы «Batman: The Dark Knight Returns» (Бэтмен: Возвращение Темного рыцаря), «Kingdom Come» (Второе пришествие) и «Batman: Noel» (Бэтмен: Рождество).
  • Рабочим названием фильма было «Сейдж и Майло» (Sage & Milo).
  • Название фильма является отсылкой к «Лиге справедливости».
  • Работу над фильмом начал Эндрю Кевин Уокер еще в августе 2001 года. Вольфганг Петерсен рассматривался на место режиссера, а Акива Голдсман — на место сценариста. По сценарию Голдсмана Джокер убивал невесту Брюса Уэйна, после чего Уэйн начинал буйствовать на почве мести, и в результате у них развивался конфликт с Суперменом, который пытался его остановить. Затем проект был заморожен, но в фильме «Я — легенда» (2007), сценаристом которого является Голдсман, в открывающей сцене, на стене одного из зданий зрители заметили плакат — знак Супермена на фоне знака Бэтмена.
  • Ранее Бен Аффлек и Дайан Лэйн вместе снимались в фильме «Смерть супермена» (2006), где Аффлек сыграл Джорджа Ривза, актера известного по роли Супермена на телевидении.
  • Джош Бролин, Райан Гослинг, Мэттью Гуд, Ричард Армитедж, Макс Мартини, Арми Хаммер, Дженсен Эклс и Джо Манганьелло рассматривались на роль Бэтмена, прежде чем ее получил Бен Аффлек.
  • Сразу после того как выяснилось, что роль Бэтмена досталась Бену Аффлеку, он стал ежедневно проводить по два часа в тренажерном зале, чтобы набрать необходимую физическую форму для своей роли.
  • Джейми Александер, Ольга Куриленко и Элоди Юнг прослушивались на роль Чудо Женщины прежде, чем она отошла Галь Гадот.
  • Марк Стронг, Дензел Вашингтон, Идрис Эльба, Адам Драйвер и Хоакин Феникс рассматривались на роль Лекса Лютора, прежде чем она досталась Джесси Айзенбергу.
  • Люси Гриффитс рассматривали на роль Чудо Женщины.
  • Тимоти Далтон рассматривался на роль Альфреда.
  • Галь Гадот – первая неамериканская актриса, исполнившая роль Чудо Женщины.
  • Джейсону Момоа предлагали роль Думсдэя.
  • Адам Драйвер, Пенн Бэджли и Эзра Миллер прослушивались на роль Найтвинга — союзника Бэтмена.
Скриншоты:

Создавать темы 28-Июн-2016 16:13 (спустя 1 час 16 минут)

фильм брехня не смотрите

_________________
Подпись отключена за нарушение правил форума
Яндекс.Метрика
Рейтинг@Mail.ru