Вечерний квартал 95. Выпуск № 70. Новогодний выпуск. Часть 1 (2013.12.31) SATRip

 

Создавать темы 01-Янв-2014 00:02

- Вечерний квартал 95. Выпуск № 70. Новогодний выпуск. Часть 1 (2013.12.31) SATRip - Режиссер / Телекомпания: 1+1
Русское название: Вечерний квартал 95
Выпущено: "Студия 95 квартал", Телеканал "Интер"
Год выпуска: 2013
Жанр: Юмор
Режиссёр: Владимир Зеленский
Актеры: Владимир Зеленский, Юрий Крапов, Денис Манжосов, Елена Кравец, Евгений Кошевой, Сергей Казанин, Александр Пикалов, Юрий Корявченков
Описание:
Ребята из "Вечернего квартала" продолжают устанавливать свои правила. И ни авторитет звезд шоу-бизнеса, ни статус влиятельных политиков, ни сам "президент Украины" не могут этому помешать. Здесь правила одни для всех, и "квартальщики" внимательно следят за тем, чтобы все "забавные законы" соблюдались. Злостных правонарушителей ребята из Квартала определяют по отсутствию улыбки на лице. Но в сегодня такие вряд ли найдутся, ведь у нас - юмор высшего класса от "Вечернего квартала".
Продолжительность: 01:28:43
Видеокодек: XviD
Битрейт видео: ~2107 kb/s
Размер кадра: 720 x 544
Качество видео: SATRip
Аудиокодек: MP3, 2ch.
Битрейт аудио: 192 kb/s

MediaInfo

Формат : AVI
Формат/Информация : Audio Video Interleave
Размер файла : 1,43 Гбайт
Продолжительность : 1 ч. 28 м.
Общий поток : 2309 Кбит/сек
Программа кодирования : VirtualDubModRus 1.5.10.2 (build 2542/release)
Библиотека кодирования : VirtualDubMod build 2542/release
Видео
Идентификатор : 0
Формат : MPEG-4 Visual
Профиль формата : Advanced [email protected]
Параметр BVOP формата : 1
Параметр QPel формата : Нет
Параметр GMC формата : Без точки перехода
Параметр матрицы формата : Default (H.263)
Идентификатор кодека : XVID
Идентификатор кодека/Подсказка : XviD
Продолжительность : 1 ч. 28 м.
Битрейт : 2107 Кбит/сек
Ширина : 720 пикселей
Высота : 544 пикселя
Соотношение сторон : 4:3
Частота кадров : 25,000 кадров/сек
Цветовое пространство : YUV
Субдискретизация насыщенности : 4:2:0
Битовая глубина : 8 бит
Тип развёртки : Прогрессивная
Метод сжатия : С потерями
Бит/(Пиксели*Кадры) : 0.215
Размер потока : 1,31 Гбайт (91%)
Библиотека кодирования : XviD 1.2.1 (UTC 2008-12-04)
Аудио
Идентификатор : 1
Формат : MPEG Audio
Версия формата : Version 1
Профиль формата : Layer 3
Режим : Joint stereo
Расширение режима : MS Stereo
Идентификатор кодека : 55
Идентификатор кодека/Подсказка : MP3
Продолжительность : 1 ч. 28 м.
Вид битрейта : Постоянный
Битрейт : 192 Кбит/сек
Каналы : 2 канала
Частота : 48,0 КГц
Метод сжатия : С потерями
Размер потока : 122 Мбайт (8%)
Выравнивание : Соединение по промежуткам
Продолжительность промежутка : 40 мс. (1,00 видеокадр)
Время предзагрузки промежутка : 504 мс.
Библиотека кодирования : LAME3.99r
Настройки программы : -m j -V 4 -q 2 -lowpass 18.6 -b 192
Скриншоты:
-
Время раздачи: 24/7. До первых 5 скачавших.
Яндекс.Метрика
Рейтинг@Mail.ru