[ Сегодня на трекере фрилич! Идет свободное скачивание без начисления Download ]

Командный пункт / War Room (Алекс Кендрик / Alex Kendrick) [2015 г., драма, BDRip-AVC] MVO [iTunes] + Sub (Rus)

 

Создавать темы 28-Июн-2016 04:59

-Командный пункт / War Room-- Производство: США, Affirm Films, FaithStep Films, Red Sky Studios, TriStar Pictures, ...
Год выпуска: 2015 г.
Жанр: драма
Продолжительность: 02:00:04Мировая премьера: 28 августа 2015
Перевод: Профессиональный (многоголосый, закадровый) [iTunes]
Режиссер: Алекс Кендрик / Alex Kendrick-В ролях: Присцилла Эванс Ширер, Т.С. Сталлингс, Карен Эберкромби, Бет Мур, Майкл мл., Джадин Харрис, Алена Питтс, Т.С. Анячонкея-Описание: Кажущаяся идеальной семья решает решить свои внутренние проблемы с помощью взрослой и мудрой старой девы мисс Клары.-
Качество видео: BDRip-AVC
Контейнер: MKV
Видео кодек: MPEG4 AVC
Аудио кодек: AC3
Видео: 1280x534, 5326 Kbit/s, 23.976 fps
Аудио: 48 kHz, AC3, 5.1, 384 Kbps, MVO, iTunes
Cубтитры: русские
Формат субтитров: softsub (SRT)
Доп. информация о субтитрах: включаемые

Рецензия

Жить в мире с собой и с Богом в душе…Как часто бывает так, что мы прогибаемся под обстоятельства в жизни, постепенно черствеем и забываем о том, что такое любовь. Жизнь наша становится безрадостной, а самые близкие люди- врагами, в число которых и мы сами.И тогда наша жизнь- это сплошное сопротивление, а мы в ней- воины.И вдруг появляется человек, который показывает нам, что жить можно по-другому, с добром в сердце. И тогда всё меняется…Фильм удивительно добрый, смотрится на одном дыхании. Реагируешь не только умом, сердцем, но и телом, которое постепенно расслабляется.И в конце фильма понимаешь, что ты в армии людей, которые верят в силу и справедливость добра.10 из 10

Media Info

Общее
Уникальный идентификатор : 198372694537248699783730498256899251233 (0x953D30F623FC06BBAD455AF751419C21)
Полное имя : F:\Командный пункт\War Room.2015.BDRip.720p.[pirat.ca].mkv
Формат : Matroska
Версия формата : Version 2
Размер файла : 4,79 Гбайт
Продолжительность : 2 ч. 0 м.
Общий поток : 5712 Кбит/сек
Название фильма : War Room.2015.BDRip.720p
Дата кодирования : UTC 2016-06-27 04:53:32
Программа кодирования : mkvmerge v5.3.0 ('I could have danced') built on Feb 9 2012 10:38:07
Библиотека кодирования : libebml v1.2.3 + libmatroska v1.3.0Видео
Идентификатор : 1
Формат : AVC
Формат/Информация : Advanced Video Codec
Профиль формата : [email protected]/* */
Параметр CABAC формата : Да
Параметр ReFrames формата : 12 кадров
Идентификатор кодека : V_MPEG4/ISO/AVC
Продолжительность : 2 ч. 0 м.
Битрейт : 5214 Кбит/сек
Ширина : 1280 пикселей
Высота : 534 пикселя
Соотношение сторон : 2,40:1
Режим частоты кадров : Постоянный
Частота кадров : 23,976 (24000/1001) кадра/сек
Цветовое пространство : YUV
Субдискретизация насыщенности : 4:2:0
Битовая глубина : 8 бит
Тип развёртки : Прогрессивная
Бит/(Пиксели*Кадры) : 0.318
Размер потока : 4,37 Гбайт (91%)
Библиотека кодирования : x264 core 148 r2638+53 bb29004 t_mod_Custom [[email protected]/* */ X86_64]
Настройки программы : cabac=1 / ref=12 / deblock=1:-3:-3 / analyse=0x3:0x133 / me=umh / subme=11 / psy=1 / fade_compensate=0.00 / psy_rd=1.05:0.00 / mixed_ref=1 / me_range=48 / chroma_me=1 / trellis=2 / 8x8dct=1 / cqm=0 / deadzone=21,11 / fast_pskip=1 / chroma_qp_offset=-2 / threads=8 / lookahead_threads=1 / sliced_threads=0 / nr=0 / decimate=1 / interlaced=0 / bluray_compat=0 / constrained_intra=0 / fgo=0 / bframes=9 / b_pyramid=2 / b_adapt=2 / b_bias=0 / direct=3 / weightb=1 / open_gop=0 / weightp=2 / keyint=250 / keyint_min=23 / scenecut=40 / intra_refresh=0 / rc_lookahead=150 / rc=crf / mbtree=0 / crf=15.6000 / qcomp=0.60 / qpmin=0:0:0 / qpmax=69:69:69 / qpstep=4 / vbv_maxrate=50000 / vbv_bufsize=62500 / crf_max=0.0 / nal_hrd=none / filler=0 / ip_ratio=1.40 / pb_ratio=1.30 / aq=3:0.80 / aq-sensitivity=10.00 / aq-factor=1.00:1.00:1.00 / aq2=0 / aq3=0
Язык : English
Default : Да
Forced : НетАудио
Идентификатор : 2
Формат : AC-3
Формат/Информация : Audio Coding 3
Расширение режима : CM (complete main)
Параметр Endianness формата : Big
Идентификатор кодека : A_AC3
Продолжительность : 2 ч. 0 м.
Вид битрейта : Постоянный
Битрейт : 384 Кбит/сек
Каналы : 6 каналов
Расположение каналов : Front: L C R, Side: L R, LFE
Частота : 48,0 КГц
Частота кадров : 31,250 кадров/сек (1536 spf)
Метод сжатия : С потерями
Размер потока : 330 Мбайт (7%)
Заголовок : MVO [iTunes]
Язык : Russian
Default : Да
Forced : НетТекст
Идентификатор : 3
Формат : UTF-8
Идентификатор кодека : S_TEXT/UTF8
Идентификатор кодека/Информация : UTF-8 Plain Text
Заголовок : Full
Язык : Russian
Default : Нет
Forced : НетМеню
00:00:00.000 : en:Chapter 1
00:07:48.760 : en:Chapter 2
00:10:30.839 : en:Chapter 3
00:16:54.430 : en:Chapter 4
00:23:09.221 : en:Chapter 5
00:29:13.001 : en:Chapter 6
00:35:08.273 : en:Chapter 7
00:45:21.302 : en:Chapter 8
00:51:24.039 : en:Chapter 9
00:58:58.827 : en:Chapter 10
01:05:35.723 : en:Chapter 11
01:11:53.684 : en:Chapter 12
01:14:00.394 : en:Chapter 13
01:28:07.407 : en:Chapter 14
01:38:06.297 : en:Chapter 15
01:52:50.764 : en:Chapter 16

Скриншот c названием фильма

Скриншоты

-Трейлер
Яндекс.Метрика
Рейтинг@Mail.ru