Клеопатра / Cleopatra (Фрэнк Роддэм / Franc Roddam) [1999 г., драма, биография, DVDRip-AVC] MVO

 

Создавать темы 28-Июн-2016 04:57

-Клеопатра / Cleopatra-- Производство: Германия, США, Babelsberg International Film Produktion GmbH, Hallmark Entertainment, RTL2, ...
Год выпуска: 1999 г.
Жанр: драма, биография
Продолжительность: 02:54:23Мировая премьера: 23 мая 1999
Дата выхода DVD: 17 июня 2010, «Флагман-Трейд»
Перевод: Профессиональный (многоголосый, закадровый)
Режиссер: Фрэнк Роддэм / Franc Roddam-В ролях: Билли Зейн, Тимоти Далтон, Руперт Грейвз, Леонор Варела, Джон Боуи, Арт Малик, Надим Савалха, Оуэн Тил, Филип Куэст, Дара О`Мэлли, Жозефин Аманква, Элизабет Дермот Уолш, Ральф Браун, Джеймс Космо, Денис Куилли, Джеймс Сэксон, Амина Аннаби, Одед Фер, Стефен Дженн, Эшли Л. Кларк, Омид Джалили, Тим Барлоу, Энтони Банси, Эйс Бхатти, Марк Хилл, Мэттью Бартлетт, Ричард Армитаж, Наим Кхан Турк, Симона Харпер, Карим Дуккали, Патрик Гордон, Саймон Де Сельва, Карлтон Хэдли, ...-Описание: Роковая царица Египта и легендарная тайна ее чар. «Мужчины должны верить: что бы ты не отдала, ему есть что еще завоевать.» 20-летняя законная царица Египта в изгнании, ее трон захвачен братом и сестрой. Клеопатра жаждет вернуть себе трон, Юлий Цезарь желает вернуть себе дань, которую ему перестали платить египтяне, и завоевать весь мир. Ночь, проведенная вместе, круто меняет жизнь обоих…-
Качество видео: DVDRip-AVC
Контейнер: MKV
Видео кодек: MPEG4 AVC
Аудио кодек: AC3
Видео: 704x536, 1964 kbps, 29,970 fps
Аудио: AC-3, 2 ch, 256 kbps (Rus) - MVO
Cубтитры: отсутствуют

Доп. информация

Для съемок в Марокко и Лондоне были построены грандиозные декорации. В боевых сценах было задействовано до 1000 человек и 600 лошадей.

Рецензия

interisti рецензии (44) оценки друзья фильмы звёздыФильм, который дарит вдохновениеИстория любви Клеопатры и Антония — одна из самых красивых и чувственных в истории человечества. Чувства, эмоции, масштаб, предательство и гибель — все это лишь частичка неповторимой истории любви. Любви великой женщины и великого мужчины.Сценаристам не удалось получить большой гонорар — история написала многое за них. Декораторы же получили двойную ставку — так легко зритель окунается в ту далекую эпоху. Работа оператора заслуживает высшего балла.Тимоти Далтон. Билли Зейн. Это лучшее, что я видел от них. Даже в сравнении с Антигероем из «Титаника». Даже в сравнении с шекспировскими ролями Далтона. Гениально. Они передали все. Все, что нужно для понимания. Их игра — образец для фильмов исторического жанра. Добрых слов заслуживает и Леонор Варела.Эта история сама по себе великолепна и стара, но все же писатели и поэты продолжают черпать вдохновение именно из нее. В том числе и я сам.Смерть КлеопатрыНочь пройдет, и солнце возродится,
Воды Нила не смыкают глаз -
Смерть летит к египетской царице
В этот тихий предрассветный час.
Да, теперь, из-за победы Рима
Клеопатра обреченно стонет,
Умирает в муках, но незримо
Гладит ее волосы Антоний.
Жизнь прошла, великая эпоха,
Кончилась гражданская война.
«Я с Египтом попрощалась плохо» —
Бросила в безумии она.
И ушла, прекрасная царица…
Поутру Антоний молвил ей:
«Боги больше не хотят молиться -
Боги жаждут красоты твоей»

Рецензия

Общее
Уникальный идентификатор : 168348648403719580577546155723716462494 (0x7EA6C532C2870C1E037BA147C20E879E)
Полное имя : F:\Клеопатра\Cleopatra.1999.DVDRip-AVC.[pirat.ca].mkv
Формат : Matroska
Версия формата : Version 2
Размер файла : 2,76 Гбайт
Продолжительность : 2 ч. 54 м.
Общий поток : 2265 Кбит/сек
Программа кодирования : Lavf51.12.1
Библиотека кодирования : Lavf51.12.1Видео
Идентификатор : 1
Формат : AVC
Формат/Информация : Advanced Video Codec
Профиль формата : [email protected]/* */
Параметр CABAC формата : Нет
Параметр ReFrames формата : 1 кадр
Параметр GOP формата : M=1, N=12
Идентификатор кодека : V_MPEG4/ISO/AVC
Продолжительность : 2 ч. 54 м.
Битрейт : 1964 Кбит/сек
Ширина : 704 пикселя
Высота : 536 пикселей
Соотношение сторон : 4:3
Режим частоты кадров : Постоянный
Частота кадров : 29,970 (30000/1001) кадров/сек
Цветовое пространство : YUV
Субдискретизация насыщенности : 4:2:0
Битовая глубина : 8 бит
Тип развёртки : Прогрессивная
Бит/(Пиксели*Кадры) : 0.174
Размер потока : 2,39 Гбайт (87%)
Язык : English
Default : Да
Forced : НетАудио
Идентификатор : 2
Формат : AC-3
Формат/Информация : Audio Coding 3
Расширение режима : CM (complete main)
Параметр Endianness формата : Big
Идентификатор кодека : A_AC3
Продолжительность : 2 ч. 54 м.
Вид битрейта : Постоянный
Битрейт : 256 Кбит/сек
Каналы : 2 канала
Расположение каналов : Front: L R
Частота : 48,0 КГц
Частота кадров : 31,250 кадров/сек (1536 spf)
Битовая глубина : 32 бит
Метод сжатия : С потерями
Размер потока : 319 Мбайт (11%)
Язык : Russian
Default : Да
Forced : Нет

Скриншот c названием фильма

Скриншоты

-
Трейлер
Яндекс.Метрика
Рейтинг@Mail.ru