Добро пожаловать в Коллинвуд / Welcome to Collinwood (Энтони Руссо / Anthony Russo) [2002 г., комедия, криминал, WEB-DLRip-AVC] Dub [МОСФИЛЬМ-мастер 2002] + Sub (Rus)

 

Создавать темы 28-Июн-2016 04:50

-Добро пожаловать в Коллинвуд / Welcome to Collinwood-- Производство: США, Германия, Gaylord Films, H5B5 Media AG, Pandora Cinema, Section Eight Ltd. , arner Bros. Pictures
Год выпуска: 2002 г.
Жанр: комедия, криминал
Продолжительность: 01:26:02Мировая премьера: 24 мая 2002
Российская премьера: 31 октября 2002, «Парадиз 2000»
Дата выхода DVD: 22 сентября 2009, «Парадиз Медиа»
Перевод: Профессиональный (полное дублирование) [МОСФИЛЬМ-мастер 2002]
Режиссер: Энтони Руссо / Anthony Russo-В ролях: Джордж Клуни, Уильям Х. Мэйси, Исайя Вашингтон, Сэм Рокуэлл, Майкл Джитер, Луис Гузман, Джон Бак мл., Патришия Кларксон, Эндрю Дэволи, Бретт С. Леонард-Описание: У мелкого воришки Косимо появляется план, как разбогатеть, использовав информацию, полученную у сокамерника. Самое главное — поскорее выбраться из тюрьмы. Все, что нужно Косимо — это найти отчаявшегося парня, того, кто согласится за $15000 взять вину на себя и отсидеть от одного до трех лет в тюрьме.Косимо поручает своей подружке Розалинде найти такого простака. Сидеть в тюрьме за преступление Косимо никто не хочет. Однако каждый делает вид, что найдет такого парня за «проценты». Пятеро парней, желающих что-нибудь урвать для себя, постоянно крутятся возле Розалинды.-
Качество видео: WEB-DLRip-AVC
Контейнер: MKV
Видео кодек: MPEG4 AVC
Аудио кодек: AC3
Видео: 1280x532 (2.40:1), 23.976 fps, 3887 Kbps (0.238 bit/pixel)
Аудио: AC-3, 48.0 KHz, 6 ch, 448 Kbps, CBR | Русский (DUB)
Cубтитры: русские
Формат субтитров: softsub (SRT)
Доп. информация о субтитрах: включаемые

Рецензия

Пять баллов! Точнее все десять и совсем не из-за того, что в трех сценах по пять минут присутствует мой любимец Джордж Клуни, картина сама по себе ужасно смешная.Начальный кадр с застывшими четырьмя телами на автобусной остановке уже приводит в гомерический хохот, один одет в явно женскую фланелевую ночную рубашку, другой с оторванной штаниной, да и остальные не краше, чумазые и грязные. А затем сразу же действие картины переносится на три недели назад, где и начиналась эта история. Завязка в в тюрьме с Косимо и рассказом ему на ушко бывалого рецидивиста про сейф, под набитого деньгами в одном из зданий города, интригует и располагает к тому, что афера будет крутой и крупной, пока не появляются центральные персонажи.Что-то с чем-то, герои картины это настоящая песня. Такого собрания уморительных неудачников в расчете на квадратный метр подыскать, практически, нереально, но все же. Абсолютно про каждого можно рассказывать долго и со вкусом — никудышный горе-боксер, сваливающийся на ринге с первого удара, одинокий папаша с младенцем, чью маму посадили за мошенничество, уличный бродяга и т. д., вообщем, почти каждый вылитый герой анекдота, где хулиганы грабят случайного прохожего, но тот оказывается настолько несчастным, что сей факт трогает даже черствые души нападавших, и ему жалостливо отдается все награбленное, да еще негласно провожают домой, чтобы не дай бог, к нему кто-то не прицепился по дороге.Подготовка и методы недоумков поражают своими подходами, со всего умирала со смеху, так не везти может только таким недотепам и чудесный финал только отражает эту тенденцию.Больше всех понравился Сэм Рокуэлл, в его героя просто влюбилась, хотя мне не так много и надо, главное, чтобы одновременно персонаж был и обаятельным, и забавным, и в меру глупым. И он именно такой. Ну, и конечно, угрюмый медвежатник Джордж Клуни, жаль мало времени был, у него вышел очень колоритный бывалый взломщик в инвалидном кресле и в наколках, не таких, разумеется, как в «От заката до рассвета», но не менее красочных. А от его уроков вскрывания сейфов, с последующим превращением учеников домушников в церковный хор при приходе полиции, валялась минут пятнадцать.Блестяще!!!10 из 10

Media Info

Общее
Уникальный идентификатор : 184142394399511692088666693221028737590 (0x8A8888FEF8114B4F94FD05678F743236)
Полное имя : D:\D\Добро пожаловать в Коллинвуд\Welcome to Collinwood.2002.WEB-DL.720p.[pirat.ca].mkv
Формат : Matroska
Версия формата : Version 2
Размер файла : 2,66 Гбайт
Продолжительность : 1 ч. 26 м.
Общий поток : 4430 Кбит/сек
Дата кодирования : UTC 2016-06-27 09:03:31
Программа кодирования : mkvmerge v5.3.0 ('I could have danced') built on Feb 9 2012 10:38:07
Библиотека кодирования : libebml v1.2.3 + libmatroska v1.3.0Видео
Идентификатор : 1
Формат : AVC
Формат/Информация : Advanced Video Codec
Профиль формата : [email protected]/* */
Параметр CABAC формата : Нет
Параметр ReFrames формата : 2 кадра
Параметр GOP формата : N=1
Идентификатор кодека : V_MPEG4/ISO/AVC
Продолжительность : 1 ч. 26 м.
Битрейт : 3894 Кбит/сек
Ширина : 1280 пикселей
Высота : 532 пикселя
Соотношение сторон : 2,40:1
Режим частоты кадров : Постоянный
Частота кадров : 23,976 кадра/сек
Цветовое пространство : YUV
Субдискретизация насыщенности : 4:2:0
Битовая глубина : 8 бит
Тип развёртки : Прогрессивная
Бит/(Пиксели*Кадры) : 0.239
Размер потока : 2,34 Гбайт (88%)
Язык : English
Default : Да
Forced : Нет
Цветовой диапазон : Limited
Основные цвета : BT.709
Характеристики трансфера : BT.709
Коэффициенты матрицы : BT.709
Statistics Tags Issue : mkvmerge v7.7.0 ('Six Voices') 64bit built on Feb 28 2015 23:39:33 2016-04-25 15:56:56 / mkvmerge v5.3.0 ('I could have danced') built on Feb 9 2012 10:38:07 2016-06-27 09:03:31
FromStats_BitRate : 3981059
FromStats_Duration : 01:26:02.830000000
FromStats_FrameCount : 123784
FromStats_StreamSize : 2569191686Аудио
Идентификатор : 2
Формат : AC-3
Формат/Информация : Audio Coding 3
Расширение режима : CM (complete main)
Параметр Endianness формата : Big
Идентификатор кодека : A_AC3
Продолжительность : 1 ч. 26 м.
Вид битрейта : Постоянный
Битрейт : 448 Кбит/сек
Каналы : 6 каналов
Расположение каналов : Front: L C R, Side: L R, LFE
Частота : 48,0 КГц
Частота кадров : 31,250 кадров/сек (1536 spf)
Метод сжатия : С потерями
Размер потока : 276 Мбайт (10%)
Заголовок : Русский (дубляж)
Язык : Russian
Default : Да
Forced : Нет
Statistics Tags Issue : mkvmerge v7.7.0 ('Six Voices') 64bit built on Feb 28 2015 23:39:33 2016-04-25 15:56:56 / mkvmerge v5.3.0 ('I could have danced') built on Feb 9 2012 10:38:07 2016-06-27 09:03:31
FromStats_BitRate : 448000
FromStats_Duration : 01:25:54.912000000
FromStats_FrameCount : 161091
FromStats_StreamSize : 288675072Текст
Идентификатор : 3
Формат : ASS
Идентификатор кодека : S_TEXT/ASS
Идентификатор кодека/Информация : Advanced Sub Station Alpha
Метод сжатия : Без потерь
Заголовок : Русские субтитры
Язык : Russian
Default : Нет
Forced : Нет
Statistics Tags Issue : mkvmerge v7.7.0 ('Six Voices') 64bit built on Feb 28 2015 23:39:33 2016-04-25 15:56:56 / mkvmerge v5.3.0 ('I could have danced') built on Feb 9 2012 10:38:07 2016-06-27 09:03:31
FromStats_BitRate : 161
FromStats_Duration : 01:22:39.140000000
FromStats_FrameCount : 1061
FromStats_StreamSize : 100166Меню
00:00:00.000 : en:Not-so-grand theft auto.
00:02:40.000 : en:Mullinski for a Bellini.
00:06:59.000 : en:Basil and Leon.
00:10:41.000 : en:Riley.
00:12:49.000 : en:Pero.
00:15:32.000 : en:A Krazner tale.
00:19:05.000 : en:Rqual shares.
00:22:14.000 : en:Jerzy's free.
00:26:58.000 : en:Bad news Babitch.
00:30:25.000 : en:How to meet a maid.
00:35:59.000 : en:Cosimo's out.
00:38:52.000 : en:Punchy over Carmela.
00:43:45.000 : en:Unexpected departures.
00:46:33.000 : en:Ready for a job.
00:48:53.000 : en:Arraingements for tonight.
00:53:34.000 : en:Looking like a Kupuchnik.
00:56:45.000 : en:Suprise!
01:00:00.000 : en:Keys, please
01:02:05.000 : en:Downs and ups.
01:05:01.000 : en:Keep your pants on.
01:07:36.000 : en:The cat again.
01:10:53.000 : en:Antwerp at work.
01:13:49.000 : en:Got a match?
01:17:47.000 : en:Not our night.
01:21:06.000 : en:End credits.

Скриншот c названием фильма

Скриншоты

Трейлер
Яндекс.Метрика
Рейтинг@Mail.ru