[ Сегодня на трекере фрилич! Идет свободное скачивание без начисления Download ]

Выживший / The Revenant (2015) BDRip [H.264] [Open Matte]

 

Создавать темы 27-Июн-2016 09:39

-Выживший / The Revenant (2015) BDRip [H.264] [Open Matte]«До последней капли крови»- Производство: США / Anonymous Content, Appian Way, New Regency Pictures
Жанр: триллер, драма, приключения, вестерн
Режиссер: Алехандро Гонсалес Иньярриту
Продюсер: Стив Голин, Арнон Милчен, Мэри Пэрент
Актеры: Леонардо ДиКаприо, Том Харди, Донал Глисон, Уилл Поултер, Пол Андерсон, Лукас Хаас, Брэд Картер, Кристоффер Йонер, Брендан Флетчер, Хавьер Ботет, Кори Грим, Роберт Молони, Винсент Леклерк, Джошуа Бёрдж, МакКалеб Барнетт, Рэй Чейз, Тимоти Лайл, Эдриан Макморран, Дэйв Бурчилл, Майкл Виллар
Описание:
Охотник Хью Гласс серьезно ранен на неизведанных просторах американского Дикого Запада. Товарищ Хью по отряду покорителей новых земель Джон Фицжеральд предательски оставляет его умирать в одиночестве. Теперь у Гласса осталось только одно оружие — его сила воли. Он готов бросить вызов первобытной природе, суровой зиме и враждебным племенам индейцев, только чтобы выжить и отомстить Фицжеральду.-Возраст: 18+ (зрителям, достигшим 18 лет. запрещено для детей)
Рейтинг MPAA: R (лицам до 17 лет обязательно присутствие взрослого)
Дата мировой премьеры: 16 декабря 2015
Дата российской премьеры: 7 января 2016, «Двадцатый Век Фокс СНГ»
Награды и номинации

Продолжительность: 02:36:29
Качество: BDRip (H.264) (исходник - Blu-ray|THE_REVENANT_OM_BLUEBIRD)
Перевод: Дублированный (Лицензия BD EUR)
Вид субтитров: Вшитые, отключаемые
Язык субтитров: Русский (форс., полные), английский (форс., полные, SDH)
Видео: AVC/H.264, 960x540, (16:9), 2 080 Kbps, 23.976 fps
Аудио: AC3, 6 ch, 384 kbps - Русский
Аудио: AC3, 2 ch, 192 kbps - Английский

MediaInfo:

Format : Matroska
Format version : Version 4 / Version 2
File size : 2.90 GiB
Duration : 2h 37mn
Overall bit rate : 2 646 Kbps
Movie name : Выживший / The Revenant (2015) :: AFM ::
Encoded date : UTC 2016-06-26 18:02:27
Writing application : mkvmerge v8.3.0 ('Over the Horizon') 32bit
Writing library : libebml v1.3.1 + libmatroska v1.4.2
Video
ID : 1
Format : AVC
Format/Info : Advanced Video Codec
Format profile : [url=mailto:[email protected]][email protected][/url]
Format settings, CABAC : Yes
Format settings, ReFrames : 11 frames
Codec ID : V_MPEG4/ISO/AVC
Duration : 2h 37mn
Bit rate : 2 080 Kbps
Width : 960 pixels
Height : 540 pixels
Display aspect ratio : 16:9
Frame rate mode : Constant
Frame rate : 23.976 fps
Color space : YUV
Chroma subsampling : 4:2:0
Bit depth : 8 bits
Scan type : Progressive
Bits/(Pixel*Frame) : 0.167
Stream size : 2.21 GiB (76%)
Title : BDRip by AFM [ .org]
Writing library : x264 core 148 r2705+54 9f484c1 t_mod_Custom [[email protected] X86_64]
Encoding settings : cabac=1 / ref=11 / deblock=1:-2:-2 / analyse=0x3:0x113 / me=umh / subme=11 / psy=1 / fade_compensate=0.00 / psy_rd=1.00:0.00 / mixed_ref=1 / me_range=32 / chroma_me=1 / trellis=2 / 8x8dct=1 / cqm=0 / deadzone=21,11 / fast_pskip=0 / chroma_qp_offset=-2 / threads=6 / lookahead_threads=1 / sliced_threads=0 / nr=0 / decimate=0 / interlaced=0 / bluray_compat=0 / constrained_intra=0 / fgo=0 / bframes=13 / b_pyramid=2 / b_adapt=2 / b_bias=0 / direct=3 / weightb=1 / open_gop=0 / weightp=2 / keyint=250 / keyint_min=23 / scenecut=40 / intra_refresh=0 / rc_lookahead=40 / rc=2pass / mbtree=0 / bitrate=2080 / ratetol=1.0 / qcomp=0.65 / qpmin=0:0:0 / qpmax=69:69:69 / qpstep=4 / cplxblur=20.0 / qblur=0.5 / vbv_maxrate=50000 / vbv_bufsize=62500 / nal_hrd=none / filler=0 / ip_ratio=1.25 / pb_ratio=1.23 / aq=3:0.90 / aq-sensitivity=10.00 / aq-factor=1.00:1.00:1.00 / aq2=0 / aq3=0 / zones=210615,225120,q=28
Language : English
Default : Yes
Forced : No
Audio #1
ID : 2
Format : AC-3
Format/Info : Audio Coding 3
Mode extension : CM (complete main)
Format settings, Endianness : Big
Codec ID : A_AC3
Duration : 2h 37mn
Bit rate mode : Constant
Bit rate : 384 Kbps
Channel(s) : 6 channels
Channel positions : Front: L C R, Side: L R, LFE
Sampling rate : 48.0 KHz
Compression mode : Lossy
Stream size : 431 MiB (15%)
Title : Dub, AC3 5.1 ~384 kbps
Language : Russian
Default : Yes
Forced : No
Audio #2
ID : 3
Format : AC-3
Format/Info : Audio Coding 3
Mode extension : CM (complete main)
Format settings, Endianness : Big
Codec ID : A_AC3
Duration : 2h 37mn
Bit rate mode : Constant
Bit rate : 192 Kbps
Channel(s) : 2 channels
Channel positions : Front: L R
Sampling rate : 48.0 KHz
Compression mode : Lossy
Stream size : 216 MiB (7%)
Title : Original, AC3 2.0 ~192 kbps
Language : English
Default : No
Forced : No
Text #1
ID : 4
Format : UTF-8
Codec ID : S_TEXT/UTF8
Codec ID/Info : UTF-8 Plain Text
Title : forced
Language : Russian
Default : Yes
Forced : No
Text #2
ID : 5
Format : UTF-8
Codec ID : S_TEXT/UTF8
Codec ID/Info : UTF-8 Plain Text
Language : Russian
Default : No
Forced : No
Text #3
ID : 6
Format : UTF-8
Codec ID : S_TEXT/UTF8
Codec ID/Info : UTF-8 Plain Text
Title : forced
Language : English
Default : No
Forced : No
Text #4
ID : 7
Format : UTF-8
Codec ID : S_TEXT/UTF8
Codec ID/Info : UTF-8 Plain Text
Language : English
Default : No
Forced : No
Text #5
ID : 8
Format : UTF-8
Codec ID : S_TEXT/UTF8
Codec ID/Info : UTF-8 Plain Text
Title : SDH
Language : English
Default : No
Forced : No
Menu
00:00:00.000 : en:Chapter 1
00:05:12.269 : en:Chapter 2
00:08:05.942 : en:Chapter 3
00:13:26.931 : en:Chapter 4
00:21:19.111 : en:Chapter 5
00:28:30.500 : en:Chapter 6
00:37:17.150 : en:Chapter 7
00:44:10.146 : en:Chapter 8
00:48:25.027 : en:Chapter 9
00:51:52.525 : en:Chapter 10
00:57:01.583 : en:Chapter 11
01:00:01.514 : en:Chapter 12
01:03:42.735 : en:Chapter 13
01:12:03.902 : en:Chapter 14
01:16:47.894 : en:Chapter 15
01:21:34.430 : en:Chapter 16
01:28:43.609 : en:Chapter 17
01:37:42.981 : en:Chapter 18
01:48:58.323 : en:Chapter 19
01:53:22.712 : en:Chapter 20
01:59:20.235 : en:Chapter 21
02:03:11.216 : en:Chapter 22
02:16:00.569 : en:Chapter 23
02:23:06.744 : en:Chapter 24
Скриншоты:
Яндекс.Метрика
Рейтинг@Mail.ru