[ Сегодня на трекере фрилич! Идет свободное скачивание без начисления Download ]

Иллюзия обмана 2 / Now You See Me 2 (Джон М. Чу / Jon M. Chu) [2016 г., боевик, триллер, комедия, TS] Dub

 

Создавать темы 27-Июн-2016 05:11

--Иллюзия обмана 2 / Now You See Me 2--«Вы еще ничего не видели»-- Производство: США, Lionsgate, Summit Entertainment
Год выпуска: 2016 г.
Жанр: боевик, триллер, комедия
Продолжительность: 02:00:46--Мировая премьера: 2 июня 2016
Российская премьера: 9 июня 2016, «Централ Партнершип»--Перевод: Профессиональный (полное дублирование)--Режиссер: Джон М. Чу / Jon M. Chu--В ролях: Джесси Айзенберг, Лиззи Каплан, Дэниэл Рэдклифф, Марк Руффало, Морган Фримен, Майкл Кейн, Вуди Харрельсон, Дэйв Франко, Санаа Лэтэн--Описание: «Четыре всадника», команда лучших иллюзионистов мира, снова в сборе! Их «магия» стала еще совершеннее, а враги — опаснее. На сей раз им предстоит спасти свою репутацию и вывести на чистую воду жестокого техномагната…-- --Качество видео: TS
Контейнер: AVI
Видео кодек: XviD
Аудио кодек: AC3
Видео: 720x368 (1.96:1), 29.970 fps, XviD build 50 ~1462 kbps avg, 0.18 bit/pixel
Аудио: 48 kHz, MPEG Layer 3, 2 ch, ~256.00 kbps avgCубтитры: отсутствуют.

Media Info

Общее
Полное имя : H:\Torrent2\Illyzia.2016.D.TS.v2.avi
Формат : AVI
Формат/Информация : Audio Video Interleave
Размер файла : 1,46 Гбайт
Продолжительность : 2 ч. 0 м.
Общий поток : 1730 Кбит/сек
Программа кодирования : VВидео
Идентификатор : 0
Формат : MPEG-4 Visual
Профиль формата : Advanced [email protected]/* */
Параметр BVOP формата : 2
Параметр QPel формата : Нет
Параметр GMC формата : Без точки перехода
Параметр матрицы формата : Выборочная
Идентификатор кодека : XVID
Идентификатор кодека/Подсказка : XviD
Продолжительность : 2 ч. 0 м.
Битрейт : 1463 Кбит/сек
Ширина : 720 пикселей
Высота : 368 пикселей
Соотношение сторон : 1,957
Частота кадров : 29,970 (29970/1000) кадров/сек
Цветовое пространство : YUV
Субдискретизация насыщенности : 4:2:0
Битовая глубина : 8 бит
Тип развёртки : Прогрессивная
Метод сжатия : С потерями
Бит/(Пиксели*Кадры) : 0.184
Размер потока : 1,23 Гбайт (85%)
Библиотека кодирования : XviD 1.2.1 (UTC 2008-12-04)Аудио
Идентификатор : 1
Формат : MPEG Audio
Версия формата : Version 1
Профиль формата : Layer 3
Режим : Joint stereo
Идентификатор кодека : 55
Идентификатор кодека/Подсказка : MP3
Продолжительность : 2 ч. 0 м.
Вид битрейта : Постоянный
Битрейт : 256 Кбит/сек
Каналы : 2 канала
Частота : 48,0 КГц
Метод сжатия : С потерями
Размер потока : 221 Мбайт (15%)
Выравнивание : Соединение по промежуткам
Продолжительность промежутка : 33 мс. (1,00 видеокадр)
Время предзагрузки промежутка : 504 мс.

Скриншоты

Трейлер

Создавать темы 28-Июн-2016 22:19 (спустя 1 день 17 часов)

Топик был перенесен из форума Зарубежные Новинки (HD*Rip/LQ, DVDRip) в форум Экранки
T_O_M
Яндекс.Метрика
Рейтинг@Mail.ru