Возможности карьеры / Career Opportunities (Брайан Гордон / Bryan Gordon) [1991 г., Мелодрама, комедия, WEB-DLRip] MVO + AVO [А.Михалёв]

 

Создавать темы 27-Июн-2016 05:08

-Возможности карьеры / Career Opportunities-- Производство: США / Hughes Entertainment, Universal Pictures
Год выпуска: 1991 г.
Жанр: Мелодрама, комедия
Продолжительность: 01:22:51Перевод: Профессиональный (многоголосый, закадровый) [ТК Россия]
Перевод 2: Авторский (одноголосый, закадровый) [А.Михалёв]
Режиссер: Брайан Гордон / Bryan Gordon-В ролях: Фрэнк Уэйли, Дженнифер Коннелли, Дермот Малруни, Киран Малруни, Дженни О’Хара, Ноубл Уиллингэм, Нада Деспотович, Рейд Биньон, Бэрри Корбин, Дениз Галик-Фёри-Описание: Работать ночным сторожем в огромном супермаркете, где можно врубить музыку на всю громкость, наесться всякой всячины от пуза, кока-колы напиться на всю оставшуюся жизнь, а потом в пустом торговом зале до самого утра кататься на роликовых коньках, - может ли быть мечта прекраснее, если тебе лет 16—17 и ты представления не имеешь, чем заняться в ближайшем будущем? У Джима эта мечта сбылась: его взяли на работу ночным сторожем в местный супермаркет. Немедленно после закрытия входных дверей и включения сигнализации молодой человек приступил к воплощению в жизнь сокровенных желаний. И скоро обнаружил, что он в магазине не один… незнакомая девушка пробралась в супермаркет, потому как у нее тоже была похожая мечта…-
Качество видео: WEB-DLRip
Контейнер: AVI
Видео кодек: XviD
Аудио кодек: AC3
Видео: 720x304, 23.976 fps, 2130 kbps
Аудио: AC3, 2 ch, 192 kbps, 48.0 kHz
Аудио #2: AC3, 2 ch, 192 kbps, 48.0 kHz
Cубтитры: отсутствуют

Media Info

General
Complete name : Career.Opportunities.1991.WEB-DLRip.[pirat.ca].avi
Format : AVI
Format/Info : Audio Video Interleave
File size : 1.46 GiB
Duration : 1h 22mn
Overall bit rate : 2 525 KbpsVideo
ID : 0
Format : MPEG-4 Visual
Format profile : Advanced [email protected]/* */
Format settings, BVOP : 1
Format settings, QPel : No
Format settings, GMC : No warppoints
Format settings, Matrix : Custom
Codec ID : XVID
Codec ID/Hint : XviD
Duration : 1h 22mn
Bit rate : 2 131 Kbps
Width : 720 pixels
Height : 304 pixels
Display aspect ratio : 2.35:1
Frame rate : 23.976 fps
Color space : YUV
Chroma subsampling : 4:2:0
Bit depth : 8 bits
Scan type : Progressive
Compression mode : Lossy
Bits/(Pixel*Frame) : 0.406
Stream size : 1.23 GiB (84%)
Writing library : XviD 73Audio #1
ID : 1
Format : AC-3
Format/Info : Audio Coding 3
Mode extension : CM (complete main)
Format settings, Endianness : Big
Codec ID : 2000
Duration : 1h 22mn
Bit rate mode : Constant
Bit rate : 192 Kbps
Channel(s) : 2 channels
Channel positions : Front: L R
Sampling rate : 48.0 KHz
Bit depth : 16 bits
Compression mode : Lossy
Stream size : 114 MiB (8%)
Alignment : Aligned on interleaves
Interleave, duration : 64 ms (1.53 video frames)
Interleave, preload duration : 192 ms
Title : PAudio #2
ID : 2
Format : AC-3
Format/Info : Audio Coding 3
Format profile : Dolby Digital
Mode extension : CM (complete main)
Format settings, Endianness : Big
Codec ID : 2000
Duration : 1h 22mn
Bit rate mode : Constant
Bit rate : 192 Kbps
Channel(s) : 2 channels
Channel positions : Front: L R
Sampling rate : 48.0 KHz
Bit depth : 16 bits
Compression mode : Lossy
Stream size : 114 MiB (8%)
Alignment : Aligned on interleaves
Interleave, duration : 64 ms (1.53 video frames)
Interleave, preload duration : 192 ms
Title : A

Скриншот c названием фильма

Скриншоты

Яндекс.Метрика
Рейтинг@Mail.ru