[ Сегодня на трекере фрилич! Идет свободное скачивание без начисления Download ]

Golden Earring - Five Zero At The Ziggo Dome (2016) [2016 г.] (Rock) [DVDRip]

 

Создавать темы 27-Июн-2016 04:57

-Golden Earring - Five Zero At The Ziggo Dome (2016)-- Год выпуска: 2016 г.
Страна: Нидерланды
Жанр: Rock
Режиссер: Rogier van der Ploeg
Студия: Universal
Продолжительность: 02:20:42-Качество видео: DVDRip-AVC
Контейнер: MKV
Видео кодек: MPEG4 AVC
Аудио кодек: AAC
Видео: 720x400 at 25fps, x264 [email protected]/* */, 1085kbps
Аудио: AAC-LC, 2/0 (L,R), 48kHz, 256kbps, 16-bit-Описание: Джордж Койманс, Барри Хэй, Ринус Герритсен и Цезарь Суидервижк 50 лет назад сл своим первым хитом уже были в топ-10. И 12 декабры 2015 года на сцене Ziggo Dome в Амстердаме дали фейрическое шоу Five Zero. Были предствалены самые популярные хиты за 50 лет творчества. Международный успех Golden Earring принесли хиты Radar Love, Twilight Zone и When The Lady Smiles. Группа, выпустившая у себя на родине более 40 хит-синглов и более 30 альбомов с платиновым статусом, существует по сей день.-

Трэклист

01 Intro Five Zero
02 Back Home
03 Buddy Joe
04 Just Like Vince Taylor
05 In My House
06 Identical
07 Future
08 Long Blond Animal
09 Je Regrette
10 The Vanilla Queen
11 Twilight Zone
12 -Band Interview-
13 Another 45 Miles
14 Going To The Run
15 Just A Little Bit Of Peace In My Heart
16 Johnny Make Believe
17 -Band Interview-
18 Turn The World Around
19 The Devil Made Me Do It
20 When The Lady Smiles
21 Heart Beat
22 Kill Me (Ce Soir)
23 Rinus On Bass
24 Radar Love
25 Cesar On Drums
26 -Band Interview-
27 That's Why I Believe in Her
28 She Flies on Strange Wings
29 Holy Holy Life
30 Outro Five Zero

Media Info

Общее
Уникальный идентификатор : 239476887539515725681623188858646552341 (0xB42992248AFD2371BEDC87B1F2BFDF15)
Полное имя : G:\Golden Earring\Golden Earring - Five Zero At The Ziggo Dome (2016).mkv
Формат : Matroska
Версия формата : Version 4 / Version 2
Размер файла : 1,33 Гбайт
Продолжительность : 2 ч. 20 м.
Общий поток : 1352 Кбит/сек
Название фильма : Golden Earring - Five Zero At The Ziggo Dome (2016) DVDRip
Дата кодирования : UTC 2016-06-24 20:54:54
Программа кодирования : mkvmerge v9.2.0 ('Photograph') 64bit
Библиотека кодирования : libebml v1.3.3 + libmatroska v1.4.4
Обложка : Yes
Attachments : Cover.jpgВидео
Идентификатор : 1
Формат : AVC
Формат/Информация : Advanced Video Codec
Профиль формата : [email protected]/* */
Параметр CABAC формата : Да
Параметр ReFrames формата : 16 кадров
Идентификатор кодека : V_MPEG4/ISO/AVC
Продолжительность : 2 ч. 20 м.
Битрейт : 1085 Кбит/сек
Ширина : 720 пикселей
Высота : 400 пикселей
Соотношение сторон : 16:9
Режим частоты кадров : Постоянный
Частота кадров : 25,000 кадров/сек
Цветовое пространство : YUV
Субдискретизация насыщенности : 4:2:0
Битовая глубина : 8 бит
Тип развёртки : Прогрессивная
Бит/(Пиксели*Кадры) : 0.151
Размер потока : 1,07 Гбайт (80%)
Заголовок : Golden Earring - Five Zero At The Ziggo Dome (2016)
Библиотека кодирования : x264 core 148 r2692kMod 64f4e24
Настройки программы : cabac=1 / ref=16 / deblock=1:0:0 / analyse=0x3:0x133 / me=umh / subme=10 / psy=1 / fade_compensate=0.00 / psy_rd=1.00:0.00 / mixed_ref=1 / me_range=24 / chroma_me=1 / trellis=2 / 8x8dct=1 / cqm=0 / deadzone=21,11 / fast_pskip=1 / chroma_qp_offset=-2 / threads=12 / lookahead_threads=2 / sliced_threads=0 / slices=4 / nr=0 / decimate=1 / interlaced=0 / bluray_compat=0 / constrained_intra=0 / fgo=0 / bframes=8 / b_pyramid=2 / b_adapt=2 / b_bias=0 / direct=3 / weightb=1 / open_gop=0 / weightp=2 / keyint=250 / keyint_min=25 / scenecut=40 / intra_refresh=0 / rc_lookahead=60 / rc=2pass / mbtree=1 / bitrate=1085 / ratetol=1.0 / qcomp=0.60 / qpmin=0 / qpmax=69 / qpstep=4 / cplxblur=20.0 / qblur=0.5 / ip_ratio=1.40 / aq=1:1.00
Язык : English
Default : Да
Forced : НетАудио
Идентификатор : 2
Формат : AAC
Формат/Информация : Advanced Audio Codec
Профиль формата : LC
Идентификатор кодека : A_AAC
Продолжительность : 2 ч. 20 м.
Битрейт : 265 Кбит/сек
Каналы : 2 канала
Расположение каналов : Front: L R
Частота : 48,0 КГц
Частота кадров : 46,875 кадров/сек (1024 spf)
Метод сжатия : С потерями
Задержка видео : 20 мс.
Размер потока : 266 Мбайт (20%)
Заголовок : AAC-LC 2.0 [email protected]/* */
Язык : English
Default : Да
Forced : НетМеню
00:00:00.000 : en:01 Intro Five Zero
00:01:17.280 : en:02 Back Home
00:04:04.320 : en:03 Buddy Joe
00:07:21.600 : en:04 Just Like Vince Taylor
00:11:28.800 : en:05 In My House
00:15:15.360 : en:06 Identical
00:18:49.920 : en:07 Future
00:26:01.440 : en:08 Long Blond Animal
00:31:06.720 : en:09 Je Regrette
00:35:25.920 : en:10 The Vanilla Queen
00:40:47.040 : en:11 Twilight Zone
00:52:48.000 : en:12 -Band Interview-
00:54:01.440 : en:13 Another 45 Miles
00:57:56.640 : en:14 Going To The Run
01:02:14.400 : en:15 Just A Little Bit Of Peace In My Heart
01:07:08.160 : en:16 Johnny Make Believe
01:12:06.720 : en:17 -Band Interview-
01:14:01.440 : en:18 Turn The World Around
01:19:02.880 : en:19 The Devil Made Me Do It
01:25:58.560 : en:20 When The Lady Smiles
01:31:32.160 : en:21 Heart Beat
01:35:29.280 : en:22 Kill Me (Ce Soir)
01:40:26.880 : en:23 Rinus On Bass
01:43:58.560 : en:24 Radar Love
01:49:57.600 : en:25 Cesar On Drums
01:56:16.320 : en:26 -Band Interview-
01:58:07.680 : en:27 That's Why I Believe in Her
02:03:05.760 : en:28 She Flies on Strange Wings
02:10:14.880 : en:29 Holy Holy Life
02:17:28.800 : en:30 Outro Five Zero

Скриншоты

Доп. информация

Главы: присутствуют и подписаны названиями песен
Яндекс.Метрика
Рейтинг@Mail.ru