Бунтарь / Baaghi (Сабир Кхан / Sabir Khan) [2016 г., боевик, мелодрама, DVDRip] MVO [Sunshine Studio]

 

Создавать темы 27-Июн-2016 04:54

-Бунтарь / Baaghi-- Производство: Индия, Benetone Films, Nadiadwala Grandson Entertainment, Prime Focus
Год выпуска: 2016 г.
Жанр: боевик, мелодрама
Продолжительность: 02:12:53Мировая премьера: 28 апреля 2016
Перевод: Любительский (многоголосый, закадровый) [Sunshine Studio]
Режиссер: Сабир Кхан / Sabir Khan-В ролях: Шраддха Капур, Тайгер Шрофф, Судхир Бабу Посани, Парас Арора, Самит Гулати-Описание: Рони нельзя назвать дураком. Но, в свои 23 года, Рони своеобразно выражает свои мысли и решает спорные вопросы. Он мог бы стать отличным врачом или ученым, но бунтарский характер не дает ему такой возможности. Устав от вечных проблем и непонимания со стороны сына, родители отправляют парня на обучение в академию, где на первом месте стоит дисциплина и самообладание. Приехав на место, Рони сразу проявил свой дух мятежника. Возмездие настигло нового студента моментально. Молодой человек понял, что необходимо приспосабливаться, чтобы избежать постоянного унижения. В академии все на равном положении. Нет любимчиков и изгоев. Ученик обязан выполнять все, что прикажут учителя. Молодежь обучают всему, начиная от мытья полов и владения мечом и заканчивая духовными практиками и различными единоборствами.Тут он познакомился с прекрасной Сией которая, так же как и он была отправлена в академию из-за несносного характера. Он влюбился, но у девушки есть парень. Характер вновь взял верх над Рони. Парень различными способами пытается привлечь внимание Сии. Получив известие о пропаже Сии, Рони отправляется на ее поиски в Таиланд. Ее выкрал Ракхав, местный криминальный авторитет.-
Качество видео: DVDRip
Контейнер: AVI
Видео кодек: XviD
Аудио кодек: MP3
Видео: 720x304 (2.37:1), 47.952 fps, XviD build 67 ~1214 kbps avg, 0.12 bit/pixel
Аудио: 44.100 kHz, MPEG Layer 3, 2 ch, ~128.00 kbps avg
Cубтитры: отсутствуют

Media Info

Общее
Полное имя : F:\Бунтарь\Buntar.2016.DVDRip.[pirat.ca].avi
Формат : AVI
Формат/Информация : Audio Video Interleave
Профиль формата : OpenDML
Размер файла : 1,26 Гбайт
Продолжительность : 2 ч. 12 м.
Режим общего битрейта : Переменный
Общий поток : 1356 Кбит/сек
Название фильма : Buntar.2016.DVDRip.[pirat.ca]
Программа кодирования : Lavf54.59.107Видео
Идентификатор : 0
Формат : MPEG-4 Visual
Профиль формата : Advanced [email protected]/* */
Параметр BVOP формата : 2
Параметр QPel формата : Нет
Параметр GMC формата : Без точки перехода
Параметр матрицы формата : Выборочная
Идентификатор кодека : XVID
Идентификатор кодека/Подсказка : XviD
Продолжительность : 2 ч. 12 м.
Битрейт : 1208 Кбит/сек
Ширина : 720 пикселей
Высота : 304 пикселя
Соотношение сторон : 2,35:1
Частота кадров : 47,952 кадров/сек
Частота кадров в оригинале : 23,976 (24000/1001) кадра/сек
Цветовое пространство : YUV
Субдискретизация насыщенности : 4:2:0
Битовая глубина : 8 бит
Тип развёртки : Прогрессивная
Метод сжатия : С потерями
Бит/(Пиксели*Кадры) : 0.115
Размер потока : 1,12 Гбайт (89%)
Библиотека кодирования : XviD 67Аудио
Идентификатор : 1
Формат : MPEG Audio
Версия формата : Version 1
Профиль формата : Layer 3
Идентификатор кодека : 55
Идентификатор кодека/Подсказка : MP3
Продолжительность : 2 ч. 12 м.
Вид битрейта : Переменный
Битрейт : 128 Кбит/сек
Каналы : 2 канала
Частота : 44,1 КГц
Метод сжатия : С потерями
Задержка видео : 29 мс.
Размер потока : 122 Мбайт (9%)
Выравнивание : Соединение по промежуткам
Продолжительность промежутка : 26 мс. (1,25 видеокадр)

Скриншот c названием фильма

Скриншоты

Трейлер
Яндекс.Метрика
Рейтинг@Mail.ru