Арии. Чудьи люди / (Телеканал REN-TV) [2016 г., Документальный, SATRip]

 

Создавать темы 27-Июн-2016 04:50

-Арии. Чудьи люди-- Производство: Россия
Жанр: Документальный
Год выпуска: 2016 г.
Продолжительность: 01:34:25Перевод: Не требуется-Описание: На Севере действительно находилась родина самой древней цивилизации Земли? И как древние египтяне могли создать сооружение из 2 миллионов каменных блоков? Все самые выдающиеся памятники древности имеют общие черты, как будто их строили люди одной культуры, одной цивилизации – но кем они были? Практически у всех народов Земли в мифах и легендах можно найти упоминания о загадочных белых Богах, которые даровали людям культуру и цивилизацию.
Кто на самом деле дал жизнь всему человечеству и кем были наши создатели?-Качество видео: SATRip
Контейнер: AVI
Видео кодек: XviD
Аудио кодек: AC3
Видео: 704х448, 25.00 fps, 1800 kbps, 0.228 bit/pixel
Аудио: 48 kHz, 2 ch, 192 kbps avg
Cубтитры: отсутствуют

Media Info

Общее
Формат : AVI
Формат/Информация : Audio Video Interleave
Размер файла : 1,32 Гбайт
Продолжительность : 1 ч. 34 м.
Общий поток : 2000 Кбит/сек
Программа кодирования : VirtualDubMod 1.5.10.3 | www.virtualdub-fr.org || (build 2550/release)
Библиотека кодирования : VirtualDubMod build 2550/releaseВидео
Идентификатор : 0
Формат : MPEG-4 Visual
Профиль формата : Advanced [email protected]/* */
Параметр BVOP формата : 2
Параметр QPel формата : Нет
Параметр GMC формата : Без точки перехода
Параметр матрицы формата : Default (H.263)
Идентификатор кодека : XVID
Идентификатор кодека/Подсказка : XviD
Продолжительность : 1 ч. 34 м.
Битрейт : 1799 Кбит/сек
Ширина : 704 пикселя
Высота : 448 пикселей
Соотношение сторон : 16:10
Частота кадров : 25,000 кадров/сек
Цветовое пространство : YUV
Субдискретизация насыщенности : 4:2:0
Битовая глубина : 8 бит
Тип развёртки : Прогрессивная
Метод сжатия : С потерями
Бит/(Пиксели*Кадры) : 0.228
Размер потока : 1,19 Гбайт (90%)
Библиотека кодирования : XviD 1.2.1 (UTC 2008-12-04)Аудио
Идентификатор : 1
Формат : MPEG Audio
Версия формата : Version 1
Профиль формата : Layer 3
Режим : Joint stereo
Расширение режима : MS Stereo
Идентификатор кодека : 55
Идентификатор кодека/Подсказка : MP3
Продолжительность : 1 ч. 34 м.
Вид битрейта : Постоянный
Битрейт : 192 Кбит/сек
Каналы : 2 канала
Частота : 48,0 КГц
Метод сжатия : С потерями
Размер потока : 130 Мбайт (10%)
Выравнивание : Соединение по промежуткам
Продолжительность промежутка : 40 мс. (1,00 видеокадр)
Время предзагрузки промежутка : 504 мс.
Библиотека кодирования : LAME3.99r
Настройки программы : -m j -V 4 -q 9 -lowpass 18.6 -b 192

Скриншоты



Яндекс.Метрика
Рейтинг@Mail.ru