Enigma - MCMXC a.D. [Limited SACD] - 2016 (1990) (New Age, Electronic)

 

Создавать темы 26-Июн-2016 19:52

-Enigma - MCMXC a.D. [Limited SACD]- Жанр: New Age, Electronic
Носитель: WEB
Страна-производитель диска (релиза): Japan
Год издания: 2016 (1990)
Издатель (лейбл): Universal Music
Страна исполнителя (группы): Germany
Аудиокодек: FLAC (*.flac)
Тип рипа: tracks
Битрейт аудио: lossless
Продолжительность: 00:40:17
Источник (релизер): newage-music.ru
Наличие сканов в содержимом раздачи: да
Смотреть видео
Треклист:
01. «The Voice of Enigma» (Curly M.C.) — 2:21
02. «Principles of Lust» — 11:43
- a. «Sadeness» (Curly, F. Gregorian, David Fairstein)
- b. «Find Love» (Curly)
- c. «Sadeness (reprise)» (Curly, Gregorian, Fairstein)
03. «Callas Went Away» (Curly) — 4:29
04. «Mea Culpa» (Curly, Fairstein) — 5:01
05. «The Voice & The Snake» (Curly, Gregorian) — 1:41
06. «Knocking on Forbidden Doors» (Curly) — 4:23
07. «Back to the Rivers of Belief» — 10:36
- a. «Way to Eternity» (Curly)
- b. «Hallelujah» (Curly)
- c. «The Rivers of Belief» (Curly, Fairstein)

Лог проверки качества

foobar2000 1.3.8 / Dynamic Range Meter 1.1.1
log date: 2016-06-25 15:09:20
--------------------------------------------------------------------------------
Analyzed: Enigma / MCMXC a.D.
--------------------------------------------------------------------------------
DR         Peak         RMS     Duration Track
--------------------------------------------------------------------------------
DR12     -11.87 dB   -27.84 dB      2:23 01-The Voice Of Enigma
DR14      -0.22 dB   -17.08 dB     11:43 02-Principles Of Lust
DR14      -0.16 dB   -17.96 dB      4:29 03-Callas Went Away
DR12      -0.35 dB   -15.46 dB      5:01 04-Mea Culpa
DR12      -7.37 dB   -23.96 dB      1:41 05-The Voice & The Snake
DR13      -0.24 dB   -17.62 dB      4:23 06-Knocking On Forbidden Doors
DR13      -0.42 dB   -17.00 dB     10:36 07-Back To The Rivers Of Belief
--------------------------------------------------------------------------------
Number of tracks:  7
Official DR value: DR13
Samplerate:        96000 Hz
Channels:          2
Bits per sample:   24
Bitrate:           2698 kbps
Codec:             FLAC
================================================================================

Об альбоме

Японский ограниченный выпуск в аудиофильском формате Hybrid Super Audio CD - DSD (диск будет воспроизводиться на всех CD и SACD-плеерах). MCMXC a.D. — первый и самый популярный альбом проекта Enigma.
MCMXC a.D. — первый и самый популярный альбом проекта Enigma. Достигнув позиции № 1 в 41 стране, он собрал 57 платиновых наград, включая тройную платину в США, где он оставался в рейтинге альбомов Топ 200 в течение 5 лет. Величайшим хитом стал первый сингл Sadeness part 1, прежде всего благодаря удачной комбинации григорианских песнопений и звуков флейты. Альбом содержал также последующие, не менее популярные синглы «Mea Culpa part II», «Principles of Lust» и «The Rivers of Belief». Он был задуман как одна непрерывная композиция, поэтому в альбоме постоянно появляются схожие мотивы, григорианские песнопения и вокал Сандры.
Альбом выпущен строго ограниченным тиражом в 1000 экземпляров, каждый из которых пронумерован.
Яндекс.Метрика
Рейтинг@Mail.ru