Преступник / Criminal (2016) WEBRip 1080p от ExKinoRay | Line

 

Создавать темы 23-Июн-2016 17:13

Информация о фильме
Название: Преступник
Оригинальное название: Criminal
Год выхода: 2016
Жанр: Фантастика, боевик, триллер, драма, криминал, детектив
Режиссер: Ариэль Вромен
В ролях: Кевин Костнер, Гэри Олдман, Томми Ли Джонс, Райан Рейнольдс, Элис Ив, Галь Гадот, Хорди Молья, Майкл Питт, Амори Ноласко, Антье Трауэ, Скотт Эдкинс, Лара Дэкаро, Фредди Бош, Эммануэль Имани, Гарри Хэппл, Даг Кокл, Колин Сэлмон, Стив Николсон, Сопе Дирису, Джизелла Маренго
О фильме:
В последней отчаянной попытке остановить катастрофу мирового масштаба генетики осуществляют невероятную операцию по вживлению воспоминаний и умений погибшего оперативника ЦРУ в тело опасного заключенного с надеждой, что тот доведет до конца прерванную миссию агента.

Страна: Великобритания, США
Студия: BenderSpink, Campbell Grobman Films, Lionsgate
Продолжительность: 01:52:49
Перевод: Дублированный | Чистый звук
Файл
Кодек: MPEG-4
Качество: WEBRip 1080p
Видео: 1920x800, 3040 Kbit/s, 24.000 fps
Звук:
Аудио #01: 48 kHz, AC3, 2.0, 192 Kbps | Дублированный, Чистый звук |
Аудио #02: 48 kHz, AAC, 2.0, 128 kbps | Оригинал |
Субтитры: Корейские (вшитые)
Релиз от: Автор релиза:

MI

General
Unique ID : 173538211017123387753137510144482358487 (0x828E3E63BC04B31F9FCC846CDEE634D7)
Complete name : F:VideoCriminal.2016.WEBRip.1080p.ExKinoRay.mkv
Format : Matroska
Format version : Version 4 / Version 2
File size : 2.65 GiB
Duration : 1h 52mn
Overall bit rate mode : Variable
Overall bit rate : 3 362 Kbps
Movie name : Criminal.2016.WEBRip.1080p.ExKinoRay
Encoded date : UTC 2016-06-23 13:57:08
Writing application : mkvmerge v8.3.0 ('Over the Horizon') 64bit
Writing library : libebml v1.3.1 + libmatroska v1.4.2
Video
ID : 1
Format : AVC
Format/Info : Advanced Video Codec
Format profile : [email protected]
Format settings, CABAC : Yes
Format settings, ReFrames : 4 frames
Codec ID : V_MPEG4/ISO/AVC
Duration : 1h 52mn
Bit rate mode : Variable
Bit rate : 3 040 Kbps
Maximum bit rate : 40.0 Mbps
Width : 1 920 pixels
Height : 800 pixels
Display aspect ratio : 2.40:1
Frame rate mode : Constant
Frame rate : 24.000 fps
Color space : YUV
Chroma subsampling : 4:2:0
Bit depth : 8 bits
Scan type : Progressive
Bits/(Pixel*Frame) : 0.082
Stream size : 2.40 GiB (90%)
Language : English
Default : Yes
Forced : No
Color range : Limited
Color primaries : BT.709
Transfer characteristics : BT.709
Matrix coefficients : BT.709
Audio #1
ID : 2
Format : AC-3
Format/Info : Audio Coding 3
Mode extension : CM (complete main)
Format settings, Endianness : Big
Codec ID : A_AC3
Duration : 1h 52mn
Bit rate mode : Constant
Bit rate : 192 Kbps
Channel(s) : 2 channels
Channel positions : Front: L R
Sampling rate : 48.0 KHz
Frame rate : 31.250 fps (1536 spf)
Compression mode : Lossy
Delay relative to video : 20s 150ms
Stream size : 154 MiB (6%)
Title : DUB [Line]
Language : Russian
Default : Yes
Forced : No
Audio #2
ID : 3
Format : AAC
Format/Info : Advanced Audio Codec
Format profile : LC
Codec ID : A_AAC
Duration : 1h 52mn
Bit rate : 128 Kbps
Channel(s) : 2 channels
Channel positions : Front: L R
Sampling rate : 44.1 KHz
Frame rate : 43.066 fps (1024 spf)
Compression mode : Lossy
Stream size : 103 MiB (4%)
Title : Original
Language : English
Default : No
Forced : No

Скриншоты

Яндекс.Метрика
Рейтинг@Mail.ru