[ Сегодня на трекере фрилич! Идет свободное скачивание без начисления Download ]

Голограмма для короля / A Hologram for the King (Том Тыквер / Tom Tykwer) [2016 г., комедия, драма, WEB-DLRip] Dub [iTunes]

 

Создавать темы 23-Июн-2016 03:36

-Голограмма для короля / A Hologram for the King-- Производство: Великобритания, Франция, Германия, США, Мексика, 22h22, FГЎbrica de Cine, Kasbah-Film Tange, Playtone, ...
Год выпуска: 2016 г.
Жанр: комедия, драма
Продолжительность: 01:33:44Мировая премьера: 20 апреля 2016
Российская премьера: 12 мая 2016, «Парадиз»
Дата выхода DVD: 8 августа 2016, «Парадиз Медиа»
Дата выхода Blu-Ray: 8 августа 2016, «Парадиз Медиа»Перевод: Профессиональный (полное дублирование) [iTunes]
Режиссер: Том Тыквер / Tom Tykwer-В ролях: Том Хэнкс, Александр Блэк, Сарита Чоудри, Сидсе Бабетт Кнудсен, Трэйси Фэирэуэй, Джейн Перри, Том Скеррит, Михаэль Бараль, Льюис Райнер, Александр Молкентин-Описание: Алан Клей - муж, отец, бизнесмен. Но его бизнес терпит крах, его брак трещит по швам, и он не знает, где взять деньги на оплату обучения дочери. Чтобы избежать банкротства и разорвать замкнутый круг, Клей отправляется в Саудовскую Аравию, где он надеется продвинуть свой дерзкий технологический проект. Во время томительного ожидания встречи с королем Алан познает скрытые тайны арабского мира, которые преображают реальность, подобно голограмме. Никто не подозревал, чем обернется это путешествие к Красному морю...-
Качество видео: WEB-DLRip
Контейнер: AVI
Видео кодек: XviD
Аудио кодек: MP3
Видео: 688x288 (2.39:1), 25 fps, XviD build 73 ~1108 kbps avg, 0.22 bit/pixel
Аудио: MP3, 2 ch, 128 kbps, 48,0 КГц
Cубтитры: отсутствуют

Рецензия

Эмоции во время просмотра как голограмма-они вроде как есть, и их вроде как нет. Сюжет можно сказать вообще отсутствует. Моментами наблюдается борьба человека с самим собой, борьба с окружающими. Сокрытие своих истинных чувств и желаний. Но нет никакой интриги, напряжения.
Алан — разведенный, любящий отец с провалившимся бизнесом и стремлением. Единственной мыслью остается обеспечить обучение дочери. И вот, путь его лежит в страну пустынь и жаркого климата. От него требуется всего лишь маленький, но ответственный шаг — презентовать королю, который вечно находится в разъездах, идею живого общения без контакта. И во время ожидания о-чудо-дня приезда короля, впитывает в себя всю культуру и колоритность Ближнего Востока. Пока его организм не может привыкнуть к часовому поясу и насладиться холодным пивом, чувства принимают окружающую красоту и других людей, а разум принимает обычаи, запреты. Он видит другую сторону культуры, видит как люди сами отпускают эти запреты. И проект, приведший его в такое место, становится спасительной ниточкой в новую жизнь.
Режиссура прекрасна. Показывать страну и надо в таких незамысловатых фильмах, где вид не кроется за раздумьями и поворотами сюжета. Где можно на фоне моря услышать ответы на вопросы, которыми задается каждый человек.
О способностях Тома Хэнкса к перевоплощению и говорить не стоит. Алан показан таким, каким и представил его Эггерс Дэйв в своем романе. И фильм оказался как книга — запоминающимся, но не навязчивым, веселым и грустным одновременно, трудным и легким.
8 из 10

Media Info

Общее
Полное имя : J:\Голограмма для короля\A.Hologram for the King.2016.WEB-DLRip.[pirat.ca].avi
Формат : AVI
Формат/Информация : Audio Video Interleave
Размер файла : 747 Мбайт
Продолжительность : 1 ч. 33 м.
Общий поток : 1114 Кбит/сек
Название фильма : A.Hologram for the King.2016.WEB-DLRip.[pirat.ca]Видео
Идентификатор : 0
Формат : MPEG-4 Visual
Профиль формата : Advanced [email protected]/* */
Параметр BVOP формата : 1
Параметр QPel формата : Нет
Параметр GMC формата : Без точки перехода
Параметр матрицы формата : Выборочная
Идентификатор кодека : XVID
Идентификатор кодека/Подсказка : XviD
Продолжительность : 1 ч. 33 м.
Битрейт : 980 Кбит/сек
Ширина : 688 пикселей
Высота : 288 пикселей
Соотношение сторон : 2,40:1
Частота кадров : 25,000 кадров/сек
Цветовое пространство : YUV
Субдискретизация насыщенности : 4:2:0
Битовая глубина : 8 бит
Тип развёртки : Прогрессивная
Метод сжатия : С потерями
Бит/(Пиксели*Кадры) : 0.198
Размер потока : 657 Мбайт (88%)
Библиотека кодирования : XviD 73Аудио
Идентификатор : 1
Формат : MPEG Audio
Версия формата : Version 1
Профиль формата : Layer 3
Режим : Joint stereo
Идентификатор кодека : 55
Идентификатор кодека/Подсказка : MP3
Продолжительность : 1 ч. 33 м.
Вид битрейта : Постоянный
Битрейт : 128 Кбит/сек
Каналы : 2 канала
Частота : 48,0 КГц
Метод сжатия : С потерями
Размер потока : 85,8 Мбайт (11%)
Выравнивание : Соединение по промежуткам
Продолжительность промежутка : 160 мс. (4,00 видеокадра)
Время предзагрузки промежутка : 216 мс.
Заголовок : iTunes
Библиотека кодирования : LAME3.99r
Настройки программы : -m j -V 4 -q 2 -lowpass 17 -b 128

Скриншот c названием фильма

Скриншоты

-Трейлер
Яндекс.Метрика
Рейтинг@Mail.ru