[ Сегодня на трекере фрилич! Идет свободное скачивание без начисления Download ]

Игра. Реванш / Игра 2 (Серии 1—20 из 20) (Олег Галин, Иван Щёголев) [2016, криминал, HDTVRip]

 

Создавать темы 22-Июн-2016 22:10

--Игра. Реванш / Игра 2--
  • Год выпуска: 2016
  • Страна: Россия / «DixiMedia», «Фильм 232»
  • Жанр: криминал
  • Продолжительность: 20 х ~00:46:00
  • Перевод: Не требуется-
  • Режиссёр: Олег Галин, Иван Щёголев-
  • В ролях: Павел Баршак, Виталий Емашов, Евгений Стычкин, Николай Козак, Дарья Повереннова, Спартак Сумченко, Павел Басов, Татьяна Корсак, Роман Майоров, Ярослав Маланин...-
  • Прошло три года с тех пор, как полковник Павел Белов и отчаянный преступник Алексей Смолин столкнулись в смертельной схватке. Смолин отбывает пожизненное заключение, Белов сменил место работы и должность, теперь он начальник службы безопасности крупного банка. Он сам, его жена и дочь спокойно спят по ночам, не боясь внезапного нападения. Но однажды Белов видит Смолина на улице и понимает, что ничего еще не закончилось. Каким образом преступнику удалось выйти на свободу и будет ли он мстить своему личному врагу и его семье? Но Белов даже не представляет, с какими по-настоящему страшными людьми ему придется бороться. По сравнению с ними Смолин окажется меньшим из зол.-
  • Премьера в России: 13 июня 2016 (НТВ)--
  • --
  • Качество видео: HDTVRip
  • Формат видео: AVI
  • Видео кодек: XviD
  • Аудио кодек: АС3
  • Видео: 720x400 (1.80:1), 25.000 fps, XviD MPEG-4, ~1600 kbps avg, 0.223 bit/pixel
  • Аудио: 48.0 kHz, AC3 Dolby Digital, 2/0 (L,R) ch, ~192.00 kbps avg
  • Субтитры: нет
--

Media Info

General
Complete name : W:\O.S.A.\Торренты\Завершенные торренты\Igra.2.revanch.2016.HDTVRip.Files-x\01.Igra.2.revanch.2016.HDTVRip.Files-x.avi
Format : AVI
Format/Info : Audio Video Interleave
File size : 600 MiB
Duration : 46mn 23s
Overall bit rate : 1 808 Kbps
Writing application : VirtualDubModRus 1.5.10.2 (build 2542/release)
Writing library : VirtualDubMod build 2542/release
Video
ID : 0
Format : MPEG-4 Visual
Format profile : Advanced [email protected]
Format settings, BVOP : 1
Format settings, QPel : No
Format settings, GMC : No warppoints
Format settings, Matrix : Custom
Codec ID : XVID
Codec ID/Hint : XviD
Duration : 46mn 23s
Bit rate : 1 606 Kbps
Width : 720 pixels
Height : 400 pixels
Display aspect ratio : 16:9
Frame rate : 25.000 fps
Color space : YUV
Chroma subsampling : 4:2:0
Bit depth : 8 bits
Scan type : Progressive
Compression mode : Lossy
Bits/(Pixel*Frame) : 0.223
Stream size : 533 MiB (89%)
Writing library : XviD 73
Audio
ID : 1
Format : AC-3
Format/Info : Audio Coding 3
Mode extension : CM (complete main)
Codec ID : 2000
Duration : 46mn 23s
Bit rate mode : Constant
Bit rate : 192 Kbps
Channel(s) : 2 channels
Channel positions : Front: L R
Sampling rate : 48.0 KHz
Bit depth : 16 bits
Compression mode : Lossy
Stream size : 63.7 MiB (11%)
Alignment : Split accross interleaves
Interleave, duration : 40 ms (1.00 video frame)
Interleave, preload duration : 500 ms
---- --
Яндекс.Метрика
Рейтинг@Mail.ru