Сокровища государства / Treasure state (Эндрю Уист / Andrew Wiest) [2013 г., Приключения, боевик, WEB-DLRip] MVO

 

Создавать темы 22-Июн-2016 04:53

-Сокровища государства / Treasure state-- Производство: США
Год выпуска: 2013 г.
Жанр: Приключения, боевик
Продолжительность: 01:22:34Мировая премьера: 3 December 2013 (USA)
Перевод: Профессиональный (многоголосый, закадровый)
Режиссер: Эндрю Уист / Andrew Wiest-В ролях: Роберт Майло Эндрус, Роберт Беар, Джейк Браманте, Колтон Кристенсен, Карен Данхэм, Лилит Филдс, Джуда Джастин, Лайам Джастин, Ларри Лэвэрти, Кристал Льюис-Описание: емейства Хоугсов и Стэнтонов, проживающих рядом с заснеженными горами Монтаны, уже не одно поколение ведут вражду друг с другом. Вот и подрастающие сыновья Леви Хоугс и Трей Стэнтон не отстают от взрослых, постоянно соревнуясь и конфликтуя друг с другом. Однажды мальчики становятся свидетелями того, как самолет терпит крушение над горами. По телевизору объявляют, что самолет перевозил очень важный груз. Леви и Трей решают вместе отправиться на поиски обломков и первыми найти сокровища государства, которые, как они считают, и перевозил самолет.-- -Качество видео: WEB-DLRip
Контейнер: AVI
Видео кодек: XviD
Аудио кодек: AC3
Видео: 720x400 (1.80:1), 25 fps, XviD build 50 ~2166 kbps avg, 0.30 bit/pixel
Аудио: 48 kHz, AC3 Dolby Digital, 2/0 (L,R) ch, ~192 kbps
Cубтитры: отсутствуют

Media Info

Общее
Полное имя : J:\Сокровища государства\Sokrovisha gosudarstva.2013.[pirat.ca].avi
Формат : AVI
Формат/Информация : Audio Video Interleave
Размер файла : 1,37 Гбайт
Продолжительность : 1 ч. 22 м.
Общий поток : 2369 Кбит/сек
Название фильма : Sokrovisha gosudarstva.2013.[pirat.ca]
Программа кодирования : VirtualDubMod 1.5.10.3 | www.virtualdub-fr.org || (build 2550/release)Видео
Идентификатор : 0
Формат : MPEG-4 Visual
Профиль формата : Advanced [email protected]/* */
Параметр BVOP формата : 2
Параметр QPel формата : Нет
Параметр GMC формата : Без точки перехода
Параметр матрицы формата : Default (MPEG)
Идентификатор кодека : XVID
Идентификатор кодека/Подсказка : XviD
Продолжительность : 1 ч. 22 м.
Битрейт : 2167 Кбит/сек
Ширина : 720 пикселей
Высота : 400 пикселей
Соотношение сторон : 16:9
Частота кадров : 25,000 кадров/сек
Цветовое пространство : YUV
Субдискретизация насыщенности : 4:2:0
Битовая глубина : 8 бит
Тип развёртки : Прогрессивная
Метод сжатия : С потерями
Бит/(Пиксели*Кадры) : 0.301
Размер потока : 1,25 Гбайт (91%)
Библиотека кодирования : XviD 1.2.1 (UTC 2008-12-04)Аудио
Идентификатор : 1
Формат : AC-3
Формат/Информация : Audio Coding 3
Расширение режима : CM (complete main)
Параметр Endianness формата : Big
Идентификатор кодека : 2000
Продолжительность : 1 ч. 22 м.
Вид битрейта : Постоянный
Битрейт : 192 Кбит/сек
Каналы : 2 канала
Расположение каналов : Front: L R
Частота : 48,0 КГц
Частота кадров : 31,250 кадров/сек (1536 spf)
Метод сжатия : С потерями
Размер потока : 113 Мбайт (8%)
Выравнивание : Разделение по промежуткам
Продолжительность промежутка : 40 мс. (1,00 видеокадр)
Время предзагрузки промежутка : 500 мс.

Скриншот c названием фильма

Скриншоты

Трейлер
Яндекс.Метрика
Рейтинг@Mail.ru