[ Сегодня на трекере фрилич! Идет свободное скачивание без начисления Download ]

Девушка для сатаны / Кукла Сатаны (18+) / La Bimba di Satana / Satan's Baby Doll (Марио Бьянки / Mario Bianchi) [1982 г., ужасы, для взрослых, DVDRip] AVO + Original (Ita)

 

Создавать темы 22-Июн-2016 04:50

-Девушка для сатаны / Кукла Сатаны (18+) / La Bimba di Satana / Satan's Baby Doll-- Производство: Италия, Filmarte
Год выпуска: 1982 г.
Жанр: ужасы, для взрослых
Продолжительность: 01:25:26Мировая премьера: 29 июля 1982
Перевод: Авторский (одноголосый, закадровый) [Антон Алексеев]
Оригинальный аудиопоток: итальянскийРежиссер: Марио Бьянки / Mario Bianchi-В ролях: Жаклин Дюпре, Альдо Санбрелл, Марианджела Джордано, Марина Хедман-Описание: «Кукла Сатаны» - незаурядный готический эротический фильм ужасов, который содержит в себе всё: убийства, одержимость, живых мертвецов, наркоманию, нимфоманию и многие другие «прелести»… Рекомендуется всем любителям извращенного кино. Картина является прекрасным развлечением и порадует всех поклонников мрачного кино, но на высшую оценку не тянет из-за своей дешевости...
Антонио живет в старинном родовом замке и считает себя повелителем Вселенной. Он занимается тем, что употребляет алкоголь и наркотики, бьет женщин, услаждает свою извращенную похоть с помощью монашек и скрывает все свои неблаговидные поступки от властей, пряча трупы своих жертв в подвале…-
Качество видео: DVDRip
Контейнер: AVI
Видео кодек: XviD
Аудио кодек: AC3
Видео: 656x384 (1.71:1), 25 fps, XviD build 73 ~2044 kbps avg, 0.32 bit/pixel
Аудио: 48 kHz, AC3 Dolby Digital, 2/0 (L,R) ch, ~192 kbps
Аудио #2: 48 kHz, AC3 Dolby Digital, 2/0 (L,R) ch, ~192 kbps
Cубтитры: отсутствуют

Рецензия

Определенный успех и скандальная слава фильма Андреа Бьянки «Malabimba», соединившего в единое целое готический хоррор и откровенное порно не могли не вызвать подражаний. И если Джо д’Амато со своими «Эротическими ночами живых мертвецов» и «Порно Холокостом» просто искусственным образом соединял одно с другим, делая акцент скорее на «фильме для взрослых», то Марио Бьянки полностью пошел по стопам своего однофамильца и снял, в принципе, классический фильм ужасов. С одним маленьким (минут так на пятнадцать) дополнением в виде специального участия Марины Хедман. Все остальное время картины она (точнее, ее героиня) мирно пребывает в виде хладного трупа, чей дух вселился в тело ее несчастной дочери, но расправу с прочими членами своей незадачливой семейки учиняет самолично. Способом, который нетрудно себе представить, зная особенности кинокарьеры шведской… ну, скажем так, актрисы.Так что, семьдесят минут экранного действия зритель видит вполне вменяемую и где-то даже атмосферную готику с семейным проклятием, тайной страстью, одержимостью, древней криптой, оживающими мертвецами и т. д., и т. п. А пятнадцать минут наблюдает, как восстающая из мертвых Мария Агилар с помощью не иначе как секретных приемов Камасутры умерщвляет своих бывших родных, помешавших ей наслаждаться запретной любовью с монахиней Соль, воспитательницей ее дочери Мирии. В принципе, причина так обозлиться у неупокоенного духа была, и о ней создатели фильма рассказать не забудут, но в последние полчаса ленты Марио Бьянки сделал все, чтобы какие-либо объяснения зрителю мужского пола уже не понадобились.Насколько я знаю, в русском переводе существует цензурированная версия фильма, которую я не видел, и, честно говоря мне трудно представить, каким образом выглядит в ней развязка. Ведь разгадку событий, происходящих в замке Агилар хитрые сценаристы спрятали аккурат между «ххх-сценами» дабы неповадно было их вырезать, но, наверное, цензоры как-то справились. Другое дело, что все-таки по сравнению с «Маlabimba», в которой подобные эпизоды смотрелись неотъемлемым целым и изъятию из фильма никак не подлежали, составляя его скелет, в этой «Бимбе» они выглядят вставными эпизодами. Важными, но не обязательными для всего действия, которое и без них имело явственный флер эротизма. Но, видимо, продюсеры на сей счет имели другое мнение, которое полностью соответствовало тенденциям в итальянском эротическом кино первой половины 80-х годов, когда порно-индустрия попыталась прорваться на большой экран, но была остановлена… Нет, вовсе не протестами поборников общественной морали, а банальной экономической конъюнктурой, которая с наступлением видео-эры сделала невыгодными подобные поползновения. Тем более, что с художественной точки зрения, фильмы подобные «La Bimba di Satana» представляли собой откровенный трэш, а удачи, хотя бы такие, как «Malabimba» потому и запоминаются, что их было крайне мало.

Media Info

Общее
Полное имя : E:\Кукла Сатаны\La Bimba di Satana.1982.dvdrip.[pirat.ca].avi
Формат : AVI
Формат/Информация : Audio Video Interleave
Размер файла : 1,46 Гбайт
Продолжительность : 1 ч. 25 м.
Общий поток : 2444 Кбит/сек
Название фильма : La Bimba di Satana.1982.dvdrip.[pirat.ca]
Программа кодирования : VirtualDubMod 1.5.10.3 | www.virtualdub-fr.org || (build 2550/release)Видео
Идентификатор : 0
Формат : MPEG-4 Visual
Профиль формата : Advanced [email protected]/* */
Параметр BVOP формата : 1
Параметр QPel формата : Нет
Параметр GMC формата : Без точки перехода
Параметр матрицы формата : Выборочная
Идентификатор кодека : XVID
Идентификатор кодека/Подсказка : XviD
Продолжительность : 1 ч. 25 м.
Битрейт : 2046 Кбит/сек
Ширина : 656 пикселей
Высота : 384 пикселя
Соотношение сторон : 1,708
Частота кадров : 25,000 кадров/сек
Цветовое пространство : YUV
Субдискретизация насыщенности : 4:2:0
Битовая глубина : 8 бит
Тип развёртки : Прогрессивная
Метод сжатия : С потерями
Бит/(Пиксели*Кадры) : 0.325
Размер потока : 1,22 Гбайт (84%)
Библиотека кодирования : XviD 73Аудио #1
Идентификатор : 1
Формат : AC-3
Формат/Информация : Audio Coding 3
Расширение режима : CM (complete main)
Параметр Endianness формата : Big
Идентификатор кодека : 2000
Продолжительность : 1 ч. 25 м.
Вид битрейта : Постоянный
Битрейт : 192 Кбит/сек
Каналы : 2 канала
Расположение каналов : Front: L R
Частота : 48,0 КГц
Частота кадров : 31,250 кадров/сек (1536 spf)
Метод сжатия : С потерями
Размер потока : 117 Мбайт (8%)
Выравнивание : Разделение по промежуткам
Продолжительность промежутка : 40 мс. (1,00 видеокадр)
Время предзагрузки промежутка : 500 мс.Аудио #2
Идентификатор : 2
Формат : AC-3
Формат/Информация : Audio Coding 3
Расширение режима : CM (complete main)
Параметр Endianness формата : Big
Идентификатор кодека : 2000
Продолжительность : 1 ч. 25 м.
Вид битрейта : Постоянный
Битрейт : 192 Кбит/сек
Каналы : 2 канала
Расположение каналов : Front: L R
Частота : 48,0 КГц
Частота кадров : 31,250 кадров/сек (1536 spf)
Метод сжатия : С потерями
Размер потока : 117 Мбайт (8%)
Выравнивание : Разделение по промежуткам
Продолжительность промежутка : 40 мс. (1,00 видеокадр)
Время предзагрузки промежутка : 500 мс.

Скриншот c названием фильма

Скриншоты

Трейлер
Яндекс.Метрика
Рейтинг@Mail.ru