Голограмма для короля / A Hologram for the King (Том Тыквер / Tom Tykwer) [2016 г., комедия, драма, WEB-DLRip] Dub [iTunes]

 

Создавать темы 22-Июн-2016 04:38

-Голограмма для короля / A Hologram for the King-- Производство: Великобритания, Франция, Германия, США, Мексика / Playtone, X Film Creative Pool, Primeridian
Год выпуска: 2016 г.
Жанр: комедия, драма
Продолжительность: 01:33:45-Мировая премьера: 20 апреля 2016
Российская премьера: 12 мая 2016
Дата выхода DVD: 8 августа 2016
Дата выхода Blu-Ray: 8 августа 2016Перевод: Профессиональный (полное дублирование) [iTunes]
Режиссер: Том Тыквер / Tom Tykwer-В ролях: Том Хэнкс, Александр Блэк, Сарита Чоудри, Сидсе Бабетт Кнудсен, Трэйси Фэирэуэй, Джейн Перри, Том Скеррит, Михаэль Бараль, Льюис Райнер, Александр Молкентин-Описание: Алан Клей — муж, отец, бизнесмен. Но его бизнес терпит крах, его брак трещит по швам, и он не знает, где взять деньги на оплату обучения дочери. Чтобы избежать банкротства и разорвать замкнутый круг, Клей отправляется в Саудовскую Аравию, где он надеется продвинуть свой дерзкий технологический проект. Во время томительного ожидания встречи с королем Алан познает скрытые тайны арабского мира, которые преображают реальность, подобно голограмме. Никто не подозревал, чем обернется это путешествие к Красному морю…-
Качество видео: WEB-DLRip
Контейнер: AVI
Видео кодек: XviD
Аудио кодек: AC3
Видео: 720x304, 1694 kb/s, 25 fps
Аудио: 384 kb/s, 6 ch, 48 kHz

Рецензия

Обрести себяАлан Клей (Том Хэнкс) — бизнесмен, который переживает непростые времена: проблемы на работе, семейные конфликты с женой, нехватка средств на обучение дочери. Неожиданно ему предлагают необычный проект по внедрению новых IT-технологий в королевстве Саудовская Аравия. Это неплохая возможность заработать и отвлечься от семейных проблем. Постепенно узнавая культуру и обычаи мусульман, Алан проникается самобытностью Саудовской Аравии. Страна моря, солнца и песка становится для Клея ближе, чем простое место командировки.Том Тыквер — режиссер с хорошей репутацией. Его фильмы «Беги, Лола, беги», «Облачный атлас» и «Парфюмер» известны по всему миру и неплохо себя зарекомендовали. В новой своей картине режиссер старается совместить современные веяния и технологии XXI века, которыми вовсю пользуются американцы, с традициями и обычаями древней мусульманской страны и ее жителей — саудитов. Сюжет отнюдь не тривиален. Интересна идея поместить среднестатистического жителя мегаполиса в пустыню, где слово «свобода» жителям мало знакомо. Знакомство Алана с местным водителем Иосифом (Александр Блэк), который постепенно знакомит его со своим миром, живущем по законам шариата, — прекрасная режиссерская находка.Порой счастье можно найти там, где ты меньше всего этого ждешь. Так же и для Алана Клея, рядовая рабочая командировка не предвещала особых жизненных перемен: съездить, запустить проект и вернуться. Но все пошло совершенно по другому сценарию. Алану сразу стало легко общаться с этими людьми — людьми другого мира. Они оказались довольно открытыми и дружелюбными к нему. Но все еще больше изменилось с появлением врача Захры (Сарита Чоудри) — непохожей на других, волевой и сильной женщины в этом «мире мужчин».На меня атмосфера фильма произвела хорошее впечатление, сразу же захотелось собрать чемодан и отправиться в путешествие, ведь в мире столько всего интересного. Фильм наполнен хорошей музыкой, веселыми шутками и долей авантюризма.Том Хэнкс — замечательный актер, чей послужной список включает такие мощные картины, что позавидует любой профессиональный актер высокого уровня. Безусловно, роль Алана Клея для Хэнкса — не лучшая, но очень интересная и запоминающаяся. Время для него еще точно не закончилось.Фильм о том, что нужно жить полной жизнью. В любой ситуации и в любом возрасте. Путешествовать и увидеть все разнообразие нашей планеты — это интересно, но очень сложно. Поэтому хорошо, что есть фильмы, помогающие нам приоткрыть завесу тайны той или иной страны, особенно такой «закрытой», как Саудовская Аравия. Легкий, яркий и мотивирующий фильм. который точно заслуживает вашего внимания.

Media Info

General
Complete name : A.Hologram.for.the.King.2016.WEB-DLRip.[pirat.ca].avi
Format : AVI
Format/Info : Audio Video Interleave
File size : 1.37 GiB
Duration : 1h 33mn
Overall bit rate : 2 088 Kbps
Writing application : VirtualDubMod 1.5.10.2 (build 2540/release)
Writing library : VirtualDubMod build 2540/releaseVideo
ID : 0
Format : MPEG-4 Visual
Format profile : Advanced [email protected]/* */
Format settings, BVOP : 2
Format settings, QPel : No
Format settings, GMC : No warppoints
Format settings, Matrix : Default (MPEG)
Codec ID : XVID
Codec ID/Hint : XviD
Duration : 1h 33mn
Bit rate : 1 694 Kbps
Width : 720 pixels
Height : 304 pixels
Display aspect ratio : 2.35:1
Frame rate : 25.000 fps
Color space : YUV
Chroma subsampling : 4:2:0
Bit depth : 8 bits
Scan type : Progressive
Compression mode : Lossy
Bits/(Pixel*Frame) : 0.310
Stream size : 1.11 GiB (81%)
Writing library : XviD 1.2.1 (UTC 2008-12-04)Audio
ID : 1
Format : AC-3
Format/Info : Audio Coding 3
Mode extension : CM (complete main)
Format settings, Endianness : Big
Codec ID : 2000
Duration : 1h 33mn
Bit rate mode : Constant
Bit rate : 384 Kbps
Channel(s) : 6 channels
Channel positions : Front: L C R, Side: L R, LFE
Sampling rate : 48.0 KHz
Bit depth : 16 bits
Compression mode : Lossy
Stream size : 257 MiB (18%)
Alignment : Split accross interleaves
Interleave, duration : 40 ms (1.00 video frame)
Interleave, preload duration : 500 ms

Скриншот c названием фильма

Скриншоты

Трейлер
Яндекс.Метрика
Рейтинг@Mail.ru