[ Сегодня на трекере фрилич! Идет свободное скачивание без начисления Download ]

Хардкор / Hardcore Henry (2015) WEB-DLRip [H.264/720p-LQ] [Line]

 

Создавать темы 21-Июн-2016 18:42

- Хардкор / Hardcore Henry (2015) WEB-DLRip [H.264/720p-LQ] [Line] - Производство: Россия, США, Базелевс Продакшн, Robusto
Жанр: Боевик, Фантастика
Режиссер: Илья Найшуллер
Актеры: Шарлто Копли, Данила Козловский, Хейли Беннетт, Андрей Дементьев, Сергей Шнуров, Кирилл Серебренников ,Александр Паль, Светлана Устинова, Даша Чаруша, Равшана Куркова
Описание:
Прекрасная супружеская жизнь рядом с очаровательной Эстель — это все, что помнит главный герой после того, как просыпается в неизвестной научной лаборатории, где в чувства его приводит собственная жена. Но супруга тут же оказывается похищенной, и ничего не понимающий главный герой Генри уже вынужден преследовать монстра Акана, который украл его жену.
Теперь ради достижения цели Генри готов на многое. Но позже оказывается, что не только он один является врагом для Акана. У подозрительного Джимми тоже свои планы на злодея. Теперь вместе ребятам предстоит спасти Эстель и предотвратить попытку задействовать армию киборгов в борьбе с человечеством. Им предстоит бороться с самим воплощением зла.-Возраст: 18+ (зрителям, достигшим 18 лет. запрещено для детей)
Рейтинг MPAA: R (лицам до 17 лет обязательно присутствие взрослого)
Продолжительность: 01:36:05
Качество видео: WEB-DLRip
Перевод: Дублированный (Line)
Субтитры: Отсутствуют
Реклама: Присутствуют вставки голосовой и текстовой рекламы.
Видео: AVC, 1280x688 (1.860), 23.976 fps, 4 049 Kbps (0.192 bit/pixel)
Аудио: AC-3, 48.0 KHz, 2 ch, 384 Kbps, CBR (Russian)

Mediainfo:

Формат                                   : Matroska
Версия формата                           : Version 4 / Version 2
Размер файла                             : 3,04 Гбайт
Продолжительность                        : 1 ч. 36 м.
Режим общего битрейта                    : Постоянный
Общий поток                              : 4523 Кбит/сек
Дата кодирования                         : UTC 2016-06-21 13:43:33
Программа кодирования                    : mkvmerge v7.6.0 ('Garden of Dreams') 64bit built on Feb  8 2015 13:04:34
Библиотека кодирования                   : libebml v1.3.1 + libmatroska v1.4.2
_STATISTICS_WRITING_APP                  : mkvmerge v7.6.0 ('Garden of Dreams') 64bit built on Feb  8 2015 13:04:34
_STATISTICS_WRITING_DATE_UTC             : 2016-06-21 13:43:33
_STATISTICS_TAGS                         : BPS DURATION NUMBER_OF_FRAMES NUMBER_OF_BYTES
DURATION                                 : 01:36:05.312000000
NUMBER_OF_FRAMES                         : 180166
NUMBER_OF_BYTES                          : 276734976
Видео
Идентификатор                            : 1
Формат                                   : AVC
Формат/Информация                        : Advanced Video Codec
Профиль формата                          : [url=mailto:[email protected]][email protected][/url]
Параметр CABAC формата                   : Да
Параметр ReFrames формата                : 9 кадров
Идентификатор кодека                     : V_MPEG4/ISO/AVC
Продолжительность                        : 1 ч. 36 м.
Вид битрейта                             : Постоянный
Битрейт                                  : 4049 Кбит/сек
Номинальный битрейт                      : 4500 Кбит/сек
Ширина                                   : 1280 пикселей
Высота                                   : 688 пикселей
Соотношение сторон                       : 1,85:1
Режим частоты кадров                     : Постоянный
Частота кадров                           : 23,976 кадра/сек
Стандарт вещания                         : Component
Цветовое пространство                    : YUV
Субдискретизация насыщенности            : 4:2:0
Битовая глубина                          : 8 бит
Тип развёртки                            : Прогрессивная
Бит/(Пиксели*Кадры)                      : 0.192
Размер потока                            : 2,72 Гбайт (90%)
Default                                  : Да
Forced                                   : Нет
Цветовой диапазон                        : Limited
Основные цвета                           : BT.709
Характеристики трансфера                 : BT.709
Коэффициенты матрицы                     : BT.709
Аудио
Идентификатор                            : 2
Формат                                   : AC-3
Формат/Информация                        : Audio Coding 3
Расширение режима                        : CM (complete main)
Параметр Endianness формата              : Big
Идентификатор кодека                     : A_AC3
Продолжительность                        : 1 ч. 36 м.
Вид битрейта                             : Постоянный
Битрейт                                  : 384 Кбит/сек
Каналы                                   : 2 канала
Расположение каналов                     : Front: L R
Частота                                  : 48,0 КГц
Битовая глубина                          : 16 бит
Метод сжатия                             : С потерями
Задержка видео                           : 26 мс.
Размер потока                            : 264 Мбайт (8%)
Язык                                     : Russian
Default                                  : Да
Forced                                   : Нет
Скриншоты:
Яндекс.Метрика
Рейтинг@Mail.ru