Страшные сказки / Il racconto dei racconti (Маттео Гарроне / Matteo Garrone) [2015 г., ужасы, фэнтези, мелодрама, BDRip-AVC] Dub [iTunes] + Sub (Rus)

 

Создавать темы 21-Июн-2016 05:24

-Страшные сказки / Il racconto dei racconti-- Производство: талия, Франция, Великобритания, Rai Cinema, HanWay Films, Archimede, ...
Год выпуска: 2015 г.
Жанр: ужасы, фэнтези, мелодрама
Продолжительность: 02:13:45Мировая премьера: 14 мая 2015
Российская премьера: 10 сентября 2015, «Cinema Prestige»
Перевод: Профессиональный (полное дублирование) [iTunes]
Режиссер: Маттео Гарроне / Matteo Garrone-В ролях: Сальма Хайек (Queen of Longtrellis), Венсан Кассель (King of Strongcliff), Тоби Джонс (King of Highhills), Джон Си Райли (King of Longtrellis), Ширли Хендерсон (Imma), Хейли Кармайкл (Dora), Бебе Кейв (Violet), Стэйси Мартин (Young Dora), Кристиан Лис (Elias), Джона Лис (Jonah), Лаура Пиццирани (Jonah's Mother), Франко Пистони (Necromancer)-Описание: Маги и волшебники, короли и королевы, красавицы-принцессы и страшилы-великаны населяют эту потрясающую готическую фантазию. Сластолюбивый Король Одинокого Утеса берет в жены прелестную деву, а она превращается в уродливую старуху. Отважный Король Долины Туманов отправляется на бой с драконом, поскольку волшебник предсказал, что королева понесет ребенка, если съест сердце дракона. Ну, а Король Диких Гор с любовью выращивает гигантскую блоху, а родную дочь без тени сожаления отдает в жены горному огру. За стенами величественных замков строятся коварные козни, даются безрассудные обеты, там страстно любят и жестоко убивают…-
Качество видео: BDRip-AVC
Контейнер: MKV
Видео кодек: MPEG4 AVC
Аудио кодек: AC3
Видео: 894x380 (2.35:1), 1175 kbps, 24 fps, 0,144 bpp
Аудио: AC3 / 5.1 / 48 kHz / 384 kbps / 16 bit
Cубтитры: русские
Формат субтитров: softsub (SRT)
Доп. информация о субтитрах: включаемые

Доп. информация

Фильм является вольной интерпретацией «Сказки сказок» Джамбаттисты Базиле.
Это первый англоязычный фильм Маттео Гарроне.

Награды

Каннский кинофестиваль, 2015 год
Номинации (1):
Золотая пальмовая ветвь

Рецензия

Немного сказочности не помешаетДанную ленту я ощутиль несколько дней назад, заглянув в любопытный старый кинотеатр. И мне мурашечно, что на фоне попкорнового кино можно поймать такую вот сказочную неоднозначность.«Сказка сказок»* — картина вкусная и стильная, цепляет эдакой эстетикой отвратительного.Представляет собой определённую независимость историй внутри сюжета, техно-моменты в виде раскадровки, акцентов, контрастов, игр и переходов цвета, музыкальность, проработанность костюмов и грима, провокацию ассоциаций.Есть некоторая недосказанность (линия сладострастного короля), но это не отвлекает от впечатления. Этот фильм живёт своей жизнью в категории «рекомендации/пересмотры», и это приятно.* — мне по душе оригинальное именование.

Media Info

Общее
Уникальный идентификатор : 243345165410295554850063667020894576532 (0xB71292F777B21E8291676B8C5B9C1F94)
Полное имя : J:\Страшные сказки\Strashnyie Skazki.2015.BDRip-AVC.[pirat.ca].mkv
Формат : Matroska
Версия формата : Version 2
Размер файла : 1,46 Гбайт
Продолжительность : 2 ч. 13 м.
Общий поток : 1560 Кбит/сек
Дата кодирования : UTC 2016-06-20 00:05:12
Программа кодирования : mkvmerge v5.3.0 ('I could have danced') built on Feb 9 2012 10:38:07
Библиотека кодирования : libebml v1.2.3 + libmatroska v1.3.0Видео
Идентификатор : 1
Формат : AVC
Формат/Информация : Advanced Video Codec
Профиль формата : [email protected]/* */
Параметр CABAC формата : Да
Параметр ReFrames формата : 5 кадров
Режим смешивания : Header stripping
Идентификатор кодека : V_MPEG4/ISO/AVC
Продолжительность : 2 ч. 13 м.
Битрейт : 1175 Кбит/сек
Ширина : 894 пикселя
Высота : 380 пикселей
Соотношение сторон : 2,35:1
Режим частоты кадров : Постоянный
Частота кадров : 24,000 кадра/сек
Цветовое пространство : YUV
Субдискретизация насыщенности : 4:2:0
Битовая глубина : 8 бит
Тип развёртки : Прогрессивная
Бит/(Пиксели*Кадры) : 0.144
Размер потока : 1,07 Гбайт (73%)
Библиотека кодирования : x264 core 148 r2597M e86f3a1
Настройки программы : cabac=1 / ref=6 / deblock=1:-2:-2 / analyse=0x3:0x133 / me=umh / subme=11 / psy=1 / psy_rd=1.00:0.10 / mixed_ref=1 / me_range=32 / chroma_me=1 / trellis=2 / 8x8dct=1 / cqm=0 / deadzone=21,11 / fast_pskip=0 / chroma_qp_offset=-3 / threads=10 / lookahead_threads=1 / sliced_threads=0 / nr=0 / decimate=1 / interlaced=0 / bluray_compat=1 / constrained_intra=0 / bframes=3 / b_pyramid=1 / b_adapt=2 / b_bias=0 / direct=3 / weightb=1 / open_gop=0 / weightp=1 / keyint=250 / keyint_min=1 / scenecut=40 / intra_refresh=0 / rc=2pass / mbtree=0 / bitrate=1175 / ratetol=1.0 / qcomp=0.70 / qpmin=0 / qpmax=69 / qpstep=4 / cplxblur=20.0 / qblur=0.5 / ip_ratio=1.40 / pb_ratio=1.30 / aq=1:0.80
Язык : English
Default : Да
Forced : Нет
Цветовой диапазон : Limited
Основные цвета : BT.709
Характеристики трансфера : BT.709
Коэффициенты матрицы : BT.709Аудио
Идентификатор : 2
Формат : AC-3
Формат/Информация : Audio Coding 3
Расширение режима : CM (complete main)
Параметр Endianness формата : Big
Режим смешивания : Header stripping
Идентификатор кодека : A_AC3
Продолжительность : 2 ч. 13 м.
Вид битрейта : Постоянный
Битрейт : 384 Кбит/сек
Каналы : 6 каналов
Расположение каналов : Front: L C R, Side: L R, LFE
Частота : 48,0 КГц
Частота кадров : 31,250 кадров/сек (1536 spf)
Метод сжатия : С потерями
Размер потока : 367 Мбайт (25%)
Заголовок : Dub | DD 5.1 @ 384 kbps - iTunes
Язык : Russian
Default : Да
Forced : НетТекст
Идентификатор : 3
Формат : UTF-8
Идентификатор кодека : S_TEXT/UTF8
Идентификатор кодека/Информация : UTF-8 Plain Text
Язык : Russian
Default : Нет
Forced : НетМеню
00:00:00.000 : en:(01)00:00:00:000
00:08:36.790 : en:(02)00:08:36:790
00:19:37.750 : en:(03)00:19:37:750
00:26:20.250 : en:(04)00:26:20:250
00:36:05.000 : en:(05)00:36:05:000
00:44:24.083 : en:(06)00:44:24:083
00:56:14.458 : en:(07)00:56:14:458
01:09:24.582 : en:(08)01:09:24:582
01:24:24.625 : en:(09)01:24:24:625
01:33:59.332 : en:(10)01:33:59:332
01:47:49.333 : en:(11)01:47:49:333
02:01:58.916 : en:(12)02:01:58:916

Скриншот c названием фильма

Скриншоты

Трейлер
Яндекс.Метрика
Рейтинг@Mail.ru