Отчаянные домохозяйки / Desperate Housewives / Сезон: 1-8 / Серии: 1-180 (180) (Ларри Шоу / Larry Shaw, ...) [2004-2012 гг., драма, мелодрама, комедия, детектив, WEB-DL, 720p] Dub (Невафильм) + Original (Eng)

 

Создавать темы 21-Июн-2016 05:20

-Отчаянные домохозяйки / Desperate Housewives
«Secrets. Romance. Murder. All On One Street»
(Все сезоны)
-- Производство: США
Жанр: драма, мелодрама, комедия, детектив
Год выпуска: 2004-2012 гг.
Продолжительность: 180х ~00:43:00Мировая премьера: 3 октября 2004
Дата выхода DVD: 8 февраля 2011, «Уолт Дисней Компани СНГ»
Перевод: Профессиональный (полное дублирование) [Невафильм]
Оригинальный аудиопоток: английскийРежиссер: Ларри Шоу / Larry Shaw, Дэвид Гроссман / David Grossman, Дэвид Уоррен / David Warren-В ролях: Тери Хатчер (Сьюзен Мейер), Фелисити Хаффман (Линнет Скаво), Марсия Кросс (Бри Ван Де Камп), Ева Лонгория (Габриэлла Солис), Николлетт Шеридан (Эди Бринетт), Стивен Калп (Рекс Ван Де Камп), Рикардо Антонио Чавира (Карлос Солис), Марк Мозес (Пол Янг), Андреа Боуэн (Джули Майер)-Описание: В центре событий - четыре современные домохозяйки, которые живут в тихом пригороде и отчаянно ищут личного счастья.
Сьюзан осталась одна после того, как муж променял её на секретаршу. Бывшая фотомодель, а ныне неверная жена, Габриель вышла замуж по расчёту, а потом поняла, что нуждается не в деньгах, а в настоящей любви, и завела роман с юным садовником. Бри пытается сохранить разваливающийся брак и найти общий язык с сыном-наркоманом и слишком рано повзрослевшей дочерью. Линнет поставила крест на блестящей карьере в крупной компании, чтобы посвятить всё свое время воспитанию троих детей.
Внезапное самоубийство их подружки Мэри Элис Янг оставляет всех в недоумении и заставляет искать разгадку ее смерти. Мэри расстается с жизнью, но обретает способность проникать во все секреты, спрятанные за наглухо закрытыми дверями этого благополучного американского пригорода.
- -Качество видео: WEB-DL
Контейнер: MKV
Стандарт разрешения: 720p
Видео кодек: H.264/AVC
Аудио кодек: AC3
Видео: 1280x720, 23.976 fps, ~4000 kbps avg
Аудио: Russian: 48 kHz, AC3, 2/0 (L,R) ch, ~192.00 kbps avg - |Дубляж, Невафильм|
Аудио #2: English: 48 kHz, AC3, 3/2 (L,C,R,l,r) + LFE ch, ~384.00 kbps avgCубтитры: отсутствуют

Знаете ли вы, что...

• Самой успешной ролью в телесериале режиссёр считает роль Бри Ван Де Камп, ведь на неё пробовались свыше семи известных актрис: Ким Кэттролл, Розанна Аркетт, Хелен Хант, Синди Маргулис, Кристин Дэвис, Кэти Сагал и Николетт Шеридан, которая вскоре получила роль стервы-бизнесвумен Идди Бритт.
• По сценарию сын Бри Ван Де Камп Эндрю должен был умереть от передозировки наркотиков. Эту идею авторы переняли у Квентина Тарантино.
• Сценарист Марк Черри ещё до начала кастинга актрис на главные роли предложил режиссёру взять на главные роли женщин из Секса в Большом Городе: Сару Джессику Паркер (Сьюзан Мейер), Синтию Никсон (Бри Ван Де Камп), Кристин Дэвис (Габриель Солис) и Ким Кэттролл (Линетт Скаво).
• На роль Идди Бритт была приглашена легенда Плейбоя - пышногрудая Памела Андерсон Ли.
• Дебют телевизионной драмы «Отчаянные домохозяйки» с ошеломляющим успехом состоялся на американском телеканале ABC.
• Многосерийная черная комедия/драма «Отчаянные домохозяйки» продолжает тему, все чаще звучащую в кино. «Степфордские жены», «Голубой бархат», «Красота по-американски», - все эти фильмы разоблачают мнимое благополучие жизни многих людей. Лучезарные улыбки, красивые дома, идеальные лужайки, а за фасадами – страшные тайны, скелеты в шкафу, люди, оказавшиеся на грани отчаяния, грязное бельё, тщательно скрываемое от глаз окружающих.
• Звезда ужастика НЕВЕСТА ЧАКИ Дженнифер Тилли была приглашена на озвучку Мэри-Элис Янг, но та вскоре отказалась от предложения по неизвестным причинам.
• Первоначальная комедийная версия сценария сериала не понравилась таким компаниям как Lifetime и HBO, поэтому сценарий пришлось переписать. ABC выразила интерес к сериалу с его драматической основой и лёгкой ноткой чёрного юмора.
• По словам Марка Черри, идея первой серии пришла ему в голову после разговора с матерью, сказавшей, что воспитание детей одной, без мужа доводило её до отчаяния.
• Опра Уинфри такая большая поклонница сериала, что её специально пригласили на съёмочную площадку. И даже сняли 15-минутный эпизод, в котором героиня Опры узнаёт все секреты жителей Вистерия-Лейн.
• На роль Сьюзан Майер изначально приглашалась звезда сериала «Друзья» Кортни Кокс-Аркетт, однако из-за своей беременности актриса была вынуждена отказаться.
• Бри говорит Эндрю: «Я бы любила тебя, будь ты даже убийцей!» («I'd love you even if you were a murderer»). Те же слова сказала сыну мать Марка Черри, когда он признался ей в нетрадиционной сексуальной ориентации.
• Тери Хетчер сломала 2 ребра во время съёмок сцены, где Сьюзан падает в свадебный торт. Актриса настояла на том, чтобы съёмки не прекращали.

Media Info

Код:
General
Complete name                    : J:\Uploads\Desperate Housewives (2004-2012)[WEB-DL.720p]\Season 1\Desperate.Housewives.S01E01.720p.WEB-DL.Rus.Eng.mkv
Format                           : Matroska
File size                        : 1.40 GiB
Duration                         : 43mn 28s
Overall bit rate                 : 4 618 Kbps
Movie name                       : Desperate Housewives S01E01 Pilot.720p.x264.Rus.Eng.-SBRO
Encoded date                     : UTC 2011-02-03 11:48:45
Writing application              : mkvmerge v3.4.0 ('Rapunzel') сборка от May 15 2010 09:38:20
Writing library                  : libebml v0.8.0 + libmatroska v0.9.0Video
ID                               : 1
Format                           : AVC
Format/Info                      : Advanced Video Codec
Format profile                   : [email protected]/*  */
Format settings, CABAC           : No
Format settings, ReFrames        : 2 frames
Muxing mode                      : Container [email protected]/*  */
Codec ID                         : V_MPEG4/ISO/AVC
Duration                         : 43mn 28s
Bit rate mode                    : Variable
Bit rate                         : 3 951 Kbps
Width                            : 1 280 pixels
Height                           : 720 pixels
Display aspect ratio             : 16:9
Frame rate                       : 23.976 fps
Color space                      : YUV
Chroma subsampling               : 4:2:0
Bit depth                        : 8 bits
Scan type                        : Progressive
Bits/(Pixel*Frame)               : 0.179
Stream size                      : 1.20 GiB (86%)
Title                            : Pilot
Language                         : English
Color primaries                  : BT.709-5, BT.1361, IEC 61966-2-4, SMPTE RP177
Transfer characteristics         : BT.709-5, BT.1361
Matrix coefficients              : BT.709-5, BT.1361, IEC 61966-2-4 709, SMPTE RP177Audio #1
ID                               : 2
Format                           : AC-3
Format/Info                      : Audio Coding 3
Mode extension                   : CM (complete main)
Codec ID                         : A_AC3
Duration                         : 43mn 28s
Bit rate mode                    : Constant
Bit rate                         : 192 Kbps
Channel(s)                       : 2 channels
Channel positions                : Front: L R
Sampling rate                    : 48.0 KHz
Bit depth                        : 16 bits
Stream size                      : 59.7 MiB (4%)
Title                            : RUS Dub 2.0
Language                         : RussianAudio #2
ID                               : 3
Format                           : AC-3
Format/Info                      : Audio Coding 3
Mode extension                   : CM (complete main)
Codec ID                         : A_AC3
Duration                         : 43mn 28s
Bit rate mode                    : Constant
Bit rate                         : 384 Kbps
Channel(s)                       : 6 channels
Channel positions                : Front: L C R, Side: L R, LFE
Sampling rate                    : 48.0 KHz
Bit depth                        : 16 bits
Stream size                      : 119 MiB (8%)
Title                            : ENG 5.1
Language                         : English

Скриншоты

Яндекс.Метрика
Рейтинг@Mail.ru