Imagine Dragons: Smoke + Mirrors Live [2016 г.] (музыка, инди рок, альтернативный рок) [BDRip-AVC]

 

Создавать темы 20-Июн-2016 03:25

-Imagine Dragons: Smoke + Mirrors Live-- Год выпуска: 2016 г.
Страна: Великобритания
Жанр: музыка, инди рок, альтернативный рок
Режиссер: Дик Карратерс / Dick Carruthers
Студия: Eagle Rock Entertainment
Продолжительность: 01:35:52-Качество видео: BDRip-AVC
Контейнер: MKV
Видео кодек: MPEG4 AVC
Аудио кодек: AAC, AC3
Видео: MPEG-4 AVC, 720x380 at 23.976 fps, 1095 kbps
Аудио#1: AAC-LC, 2 ch, 48 kHz, 329 kbps, 16-bit
Аудио#2: AC3,6 ch, 48 kHz, 448 kbps, 16-bit-Описание: 2 марта 2016 года впервые в кинотеатрах по всему миру состоялся единственный показ концерта одной из самых успешных групп в мире Imagine Dragons, снятого во время тура в поддержку последнего альбома «Smoke + Mirrors». В фильме прозвучали хиты «Demons», «It’s Time», а также «Radioactive» (композиция, получившая премию «Грэмми») с дебютного платинового альбома группы «Night Visions». В начале 2015 года группа выпустила новый альбом «Smoke + Mirrors», который сразу же возглавил хит-парады по всему миру, включая американский Billboard и британский Official Album Charts. Хиты с нового альбома («I Bet My Life», «Gold» и «Shots») также будут представлены в фильме. Лучший способ почувствовать себя на концерте любимой группы или освежить воспоминания о нем - это увидеть шоу, не пропустите одно из самых лучших выступлений группы Imagine Dragons!-

Трэклист

01. Shots
02. Trouble
03. It's Time
04. Forever Young
05. Smoke And Mirrors
06. Polaroid
07. I'm So Sorry
08. Thief
09. Gold
10. Bleeding Out
11. Warriors
12. Demons
13. Amsterdam
14. Hopeless Opus
16. On Top Of The World
19. Friction
20. Release
21. I Bet My Life
22. Radioactive
23. The Fall

Media Info

Общее
Уникальный идентификатор : 232903607952446508083047581257214949732 (0xAF379A6FFA4AE904BC2F697CC72F7964)
Полное имя : C:\герои 7\Imagine Dragons\Imagine Dragons - Smoke & Mirrors Live.2016.[pirat.ca].mkv
Формат : Matroska
Версия формата : Version 4 / Version 2
Размер файла : 1,26 Гбайт
Продолжительность : 1 ч. 35 м.
Общий поток : 1874 Кбит/сек
Название фильма : Imagine Dragons - Smoke & Mirrors Live (2016)
Дата кодирования : UTC 2016-06-18 21:27:52
Программа кодирования : mkvmerge v9.2.0 ('Photograph') 64bit
Библиотека кодирования : libebml v1.3.3 + libmatroska v1.4.4
Обложка : Yes
Attachments : Cover.jpgВидео
Идентификатор : 1
Формат : AVC
Формат/Информация : Advanced Video Codec
Профиль формата : [email protected]/* */
Параметр CABAC формата : Да
Параметр ReFrames формата : 16 кадров
Идентификатор кодека : V_MPEG4/ISO/AVC
Продолжительность : 1 ч. 35 м.
Битрейт : 1095 Кбит/сек
Ширина : 720 пикселей
Высота : 380 пикселей
Соотношение сторон : 1,895
Режим частоты кадров : Постоянный
Частота кадров : 23,976 (24000/1001) кадра/сек
Цветовое пространство : YUV
Субдискретизация насыщенности : 4:2:0
Битовая глубина : 8 бит
Тип развёртки : Прогрессивная
Бит/(Пиксели*Кадры) : 0.167
Размер потока : 751 Мбайт (58%)
Заголовок : Imagine Dragons: Smoke + Mirrors Live
Библиотека кодирования : x264 core 148 r2692kMod 64f4e24
Настройки программы : cabac=1 / ref=16 / deblock=1:0:0 / analyse=0x3:0x133 / me=umh / subme=10 / psy=1 / fade_compensate=0.00 / psy_rd=1.00:0.00 / mixed_ref=1 / me_range=24 / chroma_me=1 / trellis=2 / 8x8dct=1 / cqm=0 / deadzone=21,11 / fast_pskip=1 / chroma_qp_offset=-2 / threads=5 / lookahead_threads=1 / sliced_threads=0 / slices=4 / nr=0 / decimate=1 / interlaced=0 / bluray_compat=0 / constrained_intra=0 / fgo=0 / bframes=8 / b_pyramid=2 / b_adapt=2 / b_bias=0 / direct=3 / weightb=1 / open_gop=0 / weightp=2 / keyint=240 / keyint_min=25 / scenecut=40 / intra_refresh=0 / rc_lookahead=60 / rc=2pass / mbtree=1 / bitrate=1095 / ratetol=1.0 / qcomp=0.60 / qpmin=0 / qpmax=69 / qpstep=4 / cplxblur=20.0 / qblur=0.5 / ip_ratio=1.40 / aq=1:1.00
Язык : English
Default : Да
Forced : НетАудио #1
Идентификатор : 2
Формат : AAC
Формат/Информация : Advanced Audio Codec
Профиль формата : LC
Идентификатор кодека : A_AAC
Продолжительность : 1 ч. 35 м.
Битрейт : 329 Кбит/сек
Каналы : 2 канала
Расположение каналов : Front: L R
Частота : 48,0 КГц
Частота кадров : 46,875 кадров/сек (1024 spf)
Метод сжатия : С потерями
Задержка видео : 20 мс.
Размер потока : 225 Мбайт (18%)
Заголовок : AAC-LC 2.0 [email protected]/* */
Язык : English
Default : Да
Forced : НетАудио #2
Идентификатор : 3
Формат : AC-3
Формат/Информация : Audio Coding 3
Расширение режима : CM (complete main)
Параметр Endianness формата : Big
Идентификатор кодека : A_AC3
Продолжительность : 1 ч. 35 м.
Вид битрейта : Постоянный
Битрейт : 448 Кбит/сек
Каналы : 6 каналов
Расположение каналов : Front: L C R, Side: L R, LFE
Частота : 48,0 КГц
Частота кадров : 31,250 кадров/сек (1536 spf)
Метод сжатия : С потерями
Размер потока : 307 Мбайт (24%)
Заголовок : AC3 5.1 [email protected]/* */
Язык : English
Default : Нет
Forced : НетМеню
00:00:00.000 : en:-= INTRO =-
00:02:07.627 : en:01. Shots
00:06:52.412 : en:02. Trouble
00:11:40.700 : en:Interlude 1
00:13:08.788 : en:03. It's Time
00:18:44.081 : en:Interlude 2
00:19:44.433 : en:04. Forever Young
00:23:11.181 : en:05. Smoke And Mirrors
00:28:00.470 : en:Band Introduction
00:28:56.860 : en:06. Polaroid
00:34:03.041 : en:07. I'm So Sorry
00:39:10.348 : en:08. Thief
00:43:24.018 : en:09. Gold
00:47:59.877 : en:10. Bleeding Out
00:49:06.944 : en:11. Warriors
00:49:41.979 : en:12. Demons
00:52:49.166 : en:Interlude 3
00:54:04.241 : en:13. Amsterdam
00:57:12.095 : en:14. Hopeless Opus
01:02:57.565 : en:Interlude 4
01:04:34.871 : en:16. On Top Of The World
01:07:42.058 : en:Interlude 5
01:08:19.595 : en:19. Friction
01:12:48.364 : en:20. Release
01:15:57.970 : en:Interlude 6
01:16:55.235 : en:21. I Bet My Life
01:20:09.429 : en:22. Radioactive
01:27:41.839 : en:Interlude 7
01:28:11.202 : en:23. The Fall
01:33:44.702 : en:- End Credits -

Скриншоты

Доп. информация

Главы: присутствуют и подписаны названиями песен
Яндекс.Метрика
Рейтинг@Mail.ru