[ Сегодня на трекере фрилич! Идет свободное скачивание без начисления Download ]

Микроб и Бензин / Microbe et Gasoil (Мишель Гондри / Michel Gondry) [2015 г., драма, комедия, приключения, WEB-DL, 1080p] Sub (Rus/Eng) + Original (Fre)

 

Создавать темы 20-Июн-2016 03:23

-Микроб и Бензин / Microbe et Gasoil / Original (FRE) + Sub (RUS/ENG)-- Производство: Франция / Partizan, StudioCanal, Canal+
Год выпуска: 2015 г.
Жанр: драма, комедия, приключения
Продолжительность: 01:43:30-Мировая премьера: 8 июля 2015
Перевод: Субтитры [русские, английские]
Оригинальный аудиопоток: французскийРежиссер: Мишель Гондри / Michel Gondry-В ролях: Эндж Д’Аржент, Теофиль Баке, Диана Беснир, Одри Тоту, Винцент Ламуре, Дуглас Броссет, Чарльз Реймонд, Фердинанд Ру-Балм, Марк Деларю-Описание: Двое мальчишек решают, что хватит прозябать в школе, где оба слывут лузерами и ботаниками, а пора как следует прокатиться по Франции. Для этой сумасбродной затеи они конструируют не менее безумное средство передвижения – настоящий дом на колесах. Самое главное летнее приключение начинается!-
Качество видео: WEB-DL
Контейнер: MKV
Стандарт разрешения: 1080p
Видео кодек: MPEG4 AVC
Аудио кодек: AC3
Видео: 1792x1072 (1.67:1), 24.000 fps, 4871 kbps, 0.106 bit/pixel
Аудио: AC3 5.1, 48 kHz, 384 kbps
Cубтитры: русские
Формат субтитров: softsub (SRT)
Доп. информация о субтитрах: вшитые отключаемые

Рецензия

Василий Миловидов (Коммерсантъ Weekend) о фильме Мишеля Гондри «Микроб и Бензин»Даниэля, застенчивого ученика средних классов в сонном Версале, за хрупкое телосложение сверстники обидно зовут Микробом, и даже учителя из-за длины волос то и дело принимают за девочку. Дома у подростка старший брат, играющий в панк-группе, и невротичная мама (Одри Тоту), которая, кажется, собирается разводиться с папой. Самого Даниэля интересуют в первую очередь рисование и одноклассница Лора, держащая с ним дружескую дистанцию. В школу к герою вскоре переводят кудрявого Тео — бунтаря без причины в красной куртке из кожзама и на велосипеде, которого другие дети за неповторимый аромат сразу же прозывают Бензин. Два не слишком популярных подростка из сложных семей быстро находят общий язык и решают построить дом на колесах, чтобы укатить на поиски приключений.Забравшись в середине нулевых на артхаусный олимп с «Вечным сиянием чистого разума» и «Наукой сна», режиссер Мишель Гондри принялся планомерно терять все заработанные очки. Фирменная ручной выделки стилистика его фильмов со временем все больше начала походить на самопародию, проба в голливудском кино про супергероев обернулась фиаско, а амбициозная экранизация романа Бориса Виана «Пена дней» вызвала повсеместное недоумение. Неудивительно, что новый фильм автора пошел по миру без особой шумихи (а в Москве его показывает единственный кинотеатр), но в данном случае равнодушие общественности кажется опрометчивым.Если пропустить титр с именем режиссера, то авторство Гондри в «Микробе и Бензине» можно и не заподозрить. Здесь нет его привычных трюков с клеем и ДСП, летающих облаков из ваты и прочих очаровательных фетишей. Это трезвое (пусть и снятое слегка нестойкой камерой) кино, отсылающее к долгой традиции экранных похождений французских подростков. Даже к местному двигателю сюжета, собранному из металлолома дому на колесах, Гондри относится без особого придыхания и умиления — лишь как к инструменту для пары мимолетных гэгов. Авторские идиосинкразии выступают здесь не топливом для визуальных ухищрений, а характеристиками самих персонажей, которые любят мастерить все собственными руками и не умеют пользоваться смартфонами.Герои, по сути, играют в привычные игры самого Гондри, пока автор на определенной дистанции занят новым для себя развлечением — мимикрией под Трюффо и Малля, возможно, главных классиков французского подросткового (и одновременно автобиографического) кино. Несмотря на костюмированное представление и отказ от любимых игрушек, «Микроб и Бензин» на деле получается одним из самых личных фильмов режиссера. Гондри сам вырос в Версале, немалая часть фильма составлена из воспоминаний детства — вроде взаимоотношений с матерью, сердечных переживаний или первой выставки, на которую не пришел никто, кроме лучшего друга.Может быть, здешние драмы на порядок скромнее, а ставки в разы меньше, чем в тех фильмах, на которые ориентировался режиссер, но и это скорее идет «Микробу и Бензину» на пользу. Скромное личное в данном случае оказывается живее неуемной фантазии. Почти всегда у Гондри в центре был герой слишком не от мира сего, чтобы не витать в искусственных облаках и не утягивать за собою зрителя. В «Микробе и Бензине» у автора чуть ли не впервые получилось маленькое спокойное кино, которое искренне заинтересовано в обыденном, но оттого не менее завораживающем мире, окружающем его неординарных героев.

Рецензия

Формат : Matroska
Версия формата : Version 4 / Version 2
Размер файла : 3,88 Гбайт
Продолжительность : 1 ч. 43 м.
Общий поток : 5362 Кбит/сек
Дата кодирования : UTC 2016-06-16 23:26:16
Программа кодирования : mkvmerge v7.9.0 ('Birds') 64bit
Библиотека кодирования : libebml v1.3.1 + libmatroska v1.4.2Видео
Идентификатор : 1
Формат : AVC
Формат/Информация : Advanced Video Codec
Профиль формата : [email protected]/* */
Параметр CABAC формата : Да
Параметр ReFrames формата : 4 кадра
Идентификатор кодека : V_MPEG4/ISO/AVC
Продолжительность : 1 ч. 43 м.
Битрейт : 4871 Кбит/сек
Ширина : 1792 пикселя
Высота : 1072 пикселя
Соотношение сторон : 5:3
Режим частоты кадров : Постоянный
Частота кадров : 24,000 кадра/сек
Цветовое пространство : YUV
Субдискретизация насыщенности : 4:2:0
Битовая глубина : 8 бит
Тип развёртки : Прогрессивная
Бит/(Пиксели*Кадры) : 0.106
Размер потока : 3,52 Гбайт (91%)
Default : Да
Forced : Нет
Цветовой диапазон : Limited
Основные цвета : BT.709
Характеристики трансфера : BT.709
Коэффициенты матрицы : BT.709Аудио
Идентификатор : 2
Формат : AC-3
Формат/Информация : Audio Coding 3
Расширение режима : CM (complete main)
Параметр Endianness формата : Big
Идентификатор кодека : A_AC3
Продолжительность : 1 ч. 43 м.
Вид битрейта : Постоянный
Битрейт : 384 Кбит/сек
Каналы : 6 каналов
Расположение каналов : Front: L C R, Side: L R, LFE
Частота : 48,0 КГц
Метод сжатия : С потерями
Размер потока : 284 Мбайт (7%)
Язык : French
Default : Да
Forced : НетТекст #1
Идентификатор : 3
Формат : UTF-8
Идентификатор кодека : S_TEXT/UTF8
Идентификатор кодека/Информация : UTF-8 Plain Text
Язык : Russian
Default : Да
Forced : НетТекст #2
Идентификатор : 4
Формат : UTF-8
Идентификатор кодека : S_TEXT/UTF8
Идентификатор кодека/Информация : UTF-8 Plain Text
Язык : English
Default : Нет
Forced : НетМеню
00:00:00.000 : en:00:00:00.000
00:11:33.000 : en:00:11:33.000
00:20:17.000 : en:00:20:17.000
00:30:16.000 : en:00:30:16.000
00:40:27.000 : en:00:40:27.000
00:50:08.000 : en:00:50:08.000
01:01:08.000 : en:01:01:08.000
01:10:10.000 : en:01:10:10.000
01:21:33.000 : en:01:21:33.000
01:30:15.000 : en:01:30:15.000

Скриншоты

Яндекс.Метрика
Рейтинг@Mail.ru