[ Сегодня на трекере фрилич! Идет свободное скачивание без начисления Download ]

Белоснежка и Охотник 2 / The Huntsman: Winter's War (Седрик Николя-Троян / Cedric Nicolas-Troyan) [2016 г., фэнтези, боевик, драма, приключения, BDRip-AVC] Dub [iTunes]

 

Создавать темы 17-Июн-2016 04:52

-Белоснежка и Охотник 2 / The Huntsman: Winter's War-- Производство: США, Roth Films, Universal Pictures, ...
Год выпуска: 2016 г.
Жанр: Фэнтези, боевик, драма, приключения
Продолжительность: 01:53:57Мировая премьера: 29 марта 2016
Российская премьера: 14 апреля 2016, «UPI»
Перевод: Профессиональный (полное дублирование) [iTunes]
Режиссер: Седрик Николя-Троян / Cedric Nicolas-Troyan-В ролях: Крис Хемсворт, Шарлиз Терон, Джессика Честейн, Эмили Блант, Ник Фрост, Роб Брайдон, Шеридан Смит, Александра Роуч, Сопе Дирису, Сэм Хэзелдайн, Сэм Клафлин, Софи Куксон, Конрад Кхан, Ниам Уолтер, Нана Аджйеман-Бедьяко, Амелия Крауч, Фред Татаскьор, Ралф Айнесон, Линн Уилмот, Колин Морган-Описание: Когда любовь уходит, сердце прекрасной девы обращается в лед. И даже сотни королевств не смогут сдержать поступь ее несметного воинства. Лишь Охотник не ведает страха. Сквозь проклятый лес он идет навстречу своей судьбе.-
Качество видео: BDRip-AVC
Контейнер: MKV
Видео кодек: MPEG4 AVC
Аудио кодек: AC3
Видео: 2137 Кбит/с, 1024x426, 23.976 кадр/с
Аудио: AC3, 6 ch, 384 Кбит/с, 48,0 КГц, R5
Cубтитры: отсутствуют

Доп. информация

• Некоторые эпизоды фильма, показанные в трейлере, сняты в городке Уэлс в графстве Сомерсет.
• Съёмки фильма проходили, в частности, в деревушке Френшем в Великобритании, там же, где снимался и первый фильм.
• Надпись рунами, которая на мгновение появляется в трейлере, означает «Я вижу».
• В первом трейлере к фильму звучит композиция «Castle» певицы Halsey.
• Фрейя — в германо-скандинавской мифологии богиня любви, волшебства и смерти. Согласно мифам, она вышла за Ода, который однажды пропал без вести. Фрейя искала его по всему свету, в каждой стране беря себе новое имя, но так и не нашла любимого. Богиня стала плакать слезами, которые превращались в золото. Её собственная потеря расположила богиню ко всем влюблённым смертным.
• Исполнитель главной роли Крис Хемсворт получил известность в роли скандинавского бога Тора в фильмах кинематографической вселенной «Marvel». Персонаж актрисы Эмили Блант носит имя Фрейя (ещё одно имя из скандинавского пантеона).
• Шорт-лист режиссёров для съёмок фильма, составленный компанией «Universal Pictures», включал следующие имена: Фрэнк Дарабонт, Гэвин О`Коннор и Андрес Мускетти. Контракт был подписан с Дарабонтом, однако фильм в конце концов снял Седрик Николя-Троян, а Дарабонт просто приложил руку к работе над сценарием. На съёмках фильма «Белоснежка и охотник» (2012) Николя-Троян работал над спецэффектами и был режиссёром второго плана.
• В трейлере сказано, что продюсер Джо Рот создал «Малефисенту» (2014) и «Алису в стране чудес» (2010), фильмы студии «Disney», в то время как «Белоснежка и охотник 2» — это проект студии «Universal Pictures». Всё это — художественные фильмы по мотивам сказок.
• Персонаж воительницы Сары в исполнении Джессики Честейн упоминается в фильме «Белоснежка и охотник», где её называют покойной женой охотника.

Рецензия

Новая история любви…Ждала я этот фильм без ярого пыла. Первая часть мне понравилась, превращение слабой девушки в прекрасного воина….И вот, наконец, на экранах страны вторая часть…Сначала я думала фильм не проберет меня до костей, как было с первым…Как же я ошибалась…Эта новая история любви, заманивает своей силой и страстью…Конечно фильм для романтичных людей, которые верят в такие слова как: «Любовь все преодолеет», «И пока смерть не разлучит нас», скептиков же прошу пройти мимо этого фильма.Сюжет.Сюжет мне очень понравился. Не буду его описывать. Только скажу, что весь фильм я была как на американских горках, правда детских, но это детали. Радует резкий поворот сюжета. Тут нет той предсказуемости, как было в первом фильме.Герои.Охотник. (Крис Хемсворт)Эрик (или же Охотник) в этом фильме заметно изменился. Стал более веселым и намного чаще улыбался, что заставляло улыбаться вместе с ним.(Как можно противостоять такой улыбке?)Его юмор добавлял в фильм новые краски.Сара(Джессика Честейн)Девушка-Огонь. Тут даже слова будут лишние. Любого на куски порвет…Равенна(Шарлиз Терон)Как только эта Королева появляется на экране и ты понимаешь, что сейчас что -то будет! Шарлиз как всегда на высоте. Один ее взгляд заставляет сердце остановится.Фрея(Эмили Блант)Не видела я ее в образе злодейки, ну никак, как не пыталась. Милая прекрасная Снежная Королева…Сложно описать характер героев, не рассказав сюжет. А я этого делать не хочу.Этот фильм достоит просмотра. В нем есть все: юмор, любовь, завораживающие схватки, прекрасные герои и злодеи, волшебные костюмы и декорации и, конечно же спецэффекты и саундтрек, который четко передает настроение фильма.Посмотрите и забудьте на пару часов обо всем, что вас беспокоит.Поверьте в сказку, где любовь побеждает все!10 из 10Хоть многие будут не согласны с такой оценкой, но поставить меньше у меня просто рука не поднимется.

Media Info

Oбщее
Уникальный идентификатор : 214866523010875671157983411582374997115 (0xA1A5C97D813B5A9CA63EBCCAFC2B6C7B)
Полное имя : J:\Белоснежка и Охотник 2\The Huntsman.Winter's War.2016.BDRip-AVC.[pirat.ca].mkv
Формат : Matroska
Версия формата : Version 2
Размер файла : 2,01 Гбайт
Продолжительность : 1 ч. 53 м.
Общий поток : 2522 Кбит/сек
Название фильма : Белоснежка и Охотник II.2016
Дата кодирования : UTC 2016-06-16 16:47:54
Программа кодирования : mkvmerge v5.3.0 ('I could have danced') built on Feb 9 2012 10:38:07
Библиотека кодирования : libebml v1.2.3 + libmatroska v1.3.0
Обложка : Yes
Attachments : Cover - The.Huntsman.Winter's.War.pngВидео
Идентификатор : 1
Формат : AVC
Формат/Информация : Advanced Video Codec
Профиль формата : [email protected]/* */
Параметр CABAC формата : Да
Параметр ReFrames формата : 12 кадров
Режим смешивания : Header stripping
Идентификатор кодека : V_MPEG4/ISO/AVC
Продолжительность : 1 ч. 53 м.
Битрейт : 2137 Кбит/сек
Ширина : 1024 пикселя
Высота : 426 пикселей
Соотношение сторон : 2,40:1
Режим частоты кадров : Постоянный
Частота кадров : 23,976 (24000/1001) кадра/сек
Цветовое пространство : YUV
Субдискретизация насыщенности : 4:2:0
Битовая глубина : 8 бит
Тип развёртки : Прогрессивная
Бит/(Пиксели*Кадры) : 0.204
Размер потока : 1,66 Гбайт (83%)
Библиотека кодирования : x264 core 146 r2538 121396c
Настройки программы : cabac=1 / ref=12 / deblock=1:-3:-3 / analyse=0x3:0x133 / me=umh / subme=11 / psy=1 / psy_rd=1.00:0.07 / mixed_ref=1 / me_range=48 / chroma_me=1 / trellis=2 / 8x8dct=1 / cqm=0 / deadzone=21,11 / fast_pskip=0 / chroma_qp_offset=-3 / threads=12 / lookahead_threads=2 / sliced_threads=0 / nr=0 / decimate=0 / interlaced=0 / bluray_compat=0 / constrained_intra=0 / bframes=9 / b_pyramid=2 / b_adapt=2 / b_bias=0 / direct=3 / weightb=1 / open_gop=0 / weightp=2 / keyint=240 / keyint_min=23 / scenecut=40 / intra_refresh=0 / rc_lookahead=40 / rc=2pass / mbtree=0 / bitrate=2137 / ratetol=1.0 / qcomp=0.60 / qpmin=0 / qpmax=69 / qpstep=4 / cplxblur=20.0 / qblur=0.5 / vbv_maxrate=50000 / vbv_bufsize=62500 / nal_hrd=none / filler=0 / ip_ratio=1.40 / pb_ratio=1.30 / aq=1:1.00
Язык : English
Default : Да
Forced : НетАудио
Идентификатор : 2
Формат : AC-3
Формат/Информация : Audio Coding 3
Расширение режима : CM (complete main)
Параметр Endianness формата : Big
Режим смешивания : Header stripping
Идентификатор кодека : A_AC3
Продолжительность : 1 ч. 53 м.
Вид битрейта : Постоянный
Битрейт : 384 Кбит/сек
Каналы : 6 каналов
Расположение каналов : Front: L C R, Side: L R, LFE
Частота : 48,0 КГц
Частота кадров : 31,250 кадров/сек (1536 spf)
Метод сжатия : С потерями
Размер потока : 313 Мбайт (15%)
Заголовок : Дублированный (R5)
Язык : Russian
Default : Да
Forced : НетМеню
00:00:00.000 : en:Chapter 01
00:06:28.000 : en:Chapter 02
00:09:28.000 : en:Chapter 03
00:15:05.000 : en:Chapter 04
00:21:35.000 : en:Chapter 05
00:32:36.000 : en:Chapter 07
00:36:53.000 : en:Chapter 08
00:42:16.000 : en:Chapter 09
00:47:29.000 : en:Chapter 10
00:54:39.000 : en:Chapter 11
00:59:28.000 : en:Chapter 12
01:06:20.000 : en:Chapter 13
01:10:22.000 : en:Chapter 14
01:17:47.000 : en:Chapter 15
01:23:19.000 : en:Chapter 16
01:28:08.000 : en:Chapter 17
01:33:42.000 : en:Chapter 18
01:42:22.000 : en:Chapter 19
01:44:28.000 : en:Chapter 20

Скриншот c названием фильма

Скриншоты

Трейлер
Яндекс.Метрика
Рейтинг@Mail.ru