Белоснежка и Охотник 2 / The Huntsman: Winter's War (2016) WEB-DL 1080p | iTunes

 

Создавать темы 16-Июн-2016 09:36

Информация о фильме
Название: Белоснежка и Охотник 2
Оригинальное название: The Huntsman: Winter's War
Год выпуска: 2016
Страна: США
Жанр: фэнтези, боевик, драма, приключения-Перевод: Дубляж - [iTunes]
Продолжительность: 01:53:57-Режиссер: Седрик Николя-Троян
В ролях: Крис Хемсворт (The Huntsman / Eric), Шарлиз Терон (Ravenna), Джессика Честейн (Sara), Эмили Блант (Queen Freya), Ник Фрост (Nion), Роб Брайдон (Gryff), Шеридан Смит (Mrs. Bromwyn), Александра Роуч (Doreena), Сопе Дирису (Tull), Сэм Хэзелдайн (Leifr), Сэм Клафлин (William), Софи Куксон (Pippa)-Описание:
Когда любовь уходит, сердце прекрасной девы обращается в лед. И даже сотни королевств не смогут сдержать поступь ее несметного воинства. Лишь Охотник не ведает страха. Сквозь проклятый лес он идет навстречу своей судьбе.-Рейтинг:

MPAA: PG-13 - Детям до 13 лет просмотр не желателен-Качество: WEB-DL 1080p
Формат: MKV
Видео: AVC, 1916x796 (2.40:1), 4389 kbps, 23,976 fps, 0,120 bpp
Аудио: русский / AC3 / 5.1 / 48 kHz / 384 kbps / 16 bit |iTunes|
Навигация по главам: есть-

ОтчетМедиаИнфо

General
Unique ID : 227787880828307642200587985173163185828 (0xAB5E599DE5C395A1AB46BE19D9F696A4)
Complete name : E:The.Huntsman.Winter's.War.2.2O16.D.WEB-DL.1O8OP.mkv
Format : Matroska
Format version : Version 4 / Version 2
File size : 3.88 GiB
Duration : 1h 53mn
Overall bit rate : 4 871 Kbps
Encoded date : UTC 2016-06-15 20:08:13
Writing application : mkvmerge v9.2.0 ('Photograph') 64bit
Writing library : libebml v1.3.3 + libmatroska v1.4.4
DURATION : 01:53:57.600000000
NUMBER_OF_FRAMES : 213675
NUMBER_OF_BYTES : 328204800
_STATISTICS_WRITING_APP : mkvmerge v9.2.0 ('Photograph') 64bit
_STATISTICS_WRITING_DATE_UTC : 2016-06-15 20:08:13
_STATISTICS_TAGS : BPS DURATION NUMBER_OF_FRAMES NUMBER_OF_BYTES
Video
ID : 1
Format : AVC
Format/Info : Advanced Video Codec
Format profile : [email protected]
Format settings, CABAC : Yes
Format settings, ReFrames : 5 frames
Codec ID : V_MPEG4/ISO/AVC
Duration : 1h 53mn
Bit rate : 4 390 Kbps
Width : 1 916 pixels
Height : 796 pixels
Display aspect ratio : 2.40:1
Frame rate : 23.976 fps
Color space : YUV
Chroma subsampling : 4:2:0
Bit depth : 8 bits
Scan type : Progressive
Bits/(Pixel*Frame) : 0.120
Stream size : 3.49 GiB (90%)
Language : English
Default : Yes
Forced : No
Color primaries : BT.709-5, BT.1361, IEC 61966-2-4, SMPTE RP177
Transfer characteristics : BT.709-5, BT.1361
Matrix coefficients : BT.709-5, BT.1361, IEC 61966-2-4 709, SMPTE RP177
Audio
ID : 2
Format : AC-3
Format/Info : Audio Coding 3
Mode extension : CM (complete main)
Codec ID : A_AC3
Duration : 1h 53mn
Bit rate mode : Constant
Bit rate : 384 Kbps
Channel(s) : 6 channels
Channel positions : Front: L C R, Side: L R, LFE
Sampling rate : 48.0 KHz
Bit depth : 16 bits
Compression mode : Lossy
Stream size : 313 MiB (8%)
Title : iTunes
Language : Russian
Default : Yes
Forced : No
Menu
00:00:00.000 : en:глава 1
00:06:28.000 : en:глава 2
00:09:28.000 : en:глава 3
00:15:05.000 : en:глава 4
00:21:35.000 : en:глава 5
00:26:54.000 : en:глава 6
00:32:36.000 : en:глава 7
00:36:53.000 : en:глава 8
00:42:16.000 : en:глава 9
00:47:29.000 : en:глава 10
00:54:39.000 : en:глава 11
00:59:28.000 : en:глава 12
01:06:20.000 : en:глава 13
01:10:22.000 : en:глава 14
01:17:47.000 : en:глава 15
01:23:19.000 : en:глава 16
01:28:08.000 : en:глава 17
01:33:42.000 : en:глава 18
01:42:22.000 : en:глава 19
01:44:28.000 : en:глава 20

Скриншоты

Яндекс.Метрика
Рейтинг@Mail.ru