Белоснежка и Охотник 2 / The Huntsman (2016) WEB-DL [H.264/1080p-LQ]

 

Создавать темы 16-Июн-2016 09:34

- Белоснежка и Охотник 2 / The Huntsman (2016) WEB-DL [H.264/1080p-LQ]- Производство: США, Prime Focus World, Roth Films, Universal Pictures
Жанр: Фэнтези, Боевик, Драма, Приключения-Режиссер: Седрик Николя-Троян
Продюсер: Джо Рот, Сара Брэдшоу, Палак Патель
Актеры: Крис Хемсворт, Джессика Честейн, Эмили Блант, Шарлиз Терон, Сэм Клафлин, Шеридан Смит, Софи Куксон, Колин Морган, Ник Фрост, Роб Брайдон-Описание:
Когда любовь уходит, сердце прекрасной девы обращается в лед.
И даже сотни королевств не смогут сдержать поступь ее несметного воинства. Лишь Охотник не ведает страха. Сквозь проклятый лес он идет на встречу своей судьбе.
Возраст: 16+ (зрителям, достигшим 16 лет)
Рейтинг MPAA: PG-13 (детям до 13 лет просмотр нежелателен)
Дата мировой премьеры: 20 апреля 2016
Дата премьеры в России: 21 апреля 2016, «UPI»
-Продолжительность: 01:53:57
Качество видео: WEB-DL
Перевод: Дублированный (iTunes)
Вид субтитров: Отсутствуют
Видео: AVC/H.264, 1916x796 (2.40:1), 4386 kb/s, 23.976 fps
Аудио »1: 48 kHz, AC3 Dolby Digital, 3/2 (L,C,R,l,r) + LFE ch, ~384 kbps (Русский)
Аудио »2: 48 kHz, AC3 Dolby Digital, 2/0 (L,R) ch, ~192 kbps (Английский/Оригинал)

MI

Общее
Уникальный идентификатор : 202548068792795018836575856599467603476 (0x986156CE60E0F8EF98E56DC0B9A4B614)
Полное имя : D:\Релизы\Белоснежка.и.Охотник.2.2016.WEB-DL.[1080p].NNMClub.to.mkv
Формат : Matroska
Версия формата : Version 2
Размер файла : 4,03 Гбайт
Продолжительность : 1 ч. 53 м.
Общий поток : 5063 Кбит/сек
Название фильма : Белоснежка.и.Охотник.2.2016.WEB-DL.[1080p].NNMClub.to
Дата кодирования : UTC 2016-06-16 07:20:14
Программа кодирования : mkvmerge v8.3.0 ('Over the Horizon') 64bit
Библиотека кодирования : libebml v1.3.1 + libmatroska v1.4.2
Видео
Идентификатор : 1
Формат : AVC
Формат/Информация : Advanced Video Codec
Профиль формата : [email protected]
Параметр CABAC формата : Да
Параметр ReFrames формата : 5 кадров
Идентификатор кодека : V_MPEG4/ISO/AVC
Продолжительность : 1 ч. 53 м.
Битрейт : 4386 Кбит/сек
Ширина : 1916 пикселей
Высота : 796 пикселей
Соотношение сторон : 2,40:1
Режим частоты кадров : Постоянный
Частота кадров : 23,976 кадра/сек
Цветовое пространство : YUV
Субдискретизация насыщенности : 4:2:0
Битовая глубина : 8 бит
Тип развёртки : Прогрессивная
Бит/(Пиксели*Кадры) : 0.120
Размер потока : 3,49 Гбайт (87%)
Заголовок : Белоснежка.и.Охотник.2.2016.WEB-DL.[1080p].NNMClub.to
Язык : English
Default : Да
Forced : Нет
Цветовой диапазон : Limited
Основные цвета : BT.709
Характеристики трансфера : BT.709
Коэффициенты матрицы : BT.709
Аудио #1
Идентификатор : 2
Формат : AC-3
Формат/Информация : Audio Coding 3
Расширение режима : CM (complete main)
Параметр Endianness формата : Big
Идентификатор кодека : A_AC3
Продолжительность : 1 ч. 53 м.
Вид битрейта : Постоянный
Битрейт : 384 Кбит/сек
Каналы : 6 каналов
Расположение каналов : Front: L C R, Side: L R, LFE
Частота : 48,0 КГц
Метод сжатия : С потерями
Размер потока : 313 Мбайт (8%)
Заголовок : iTunes
Язык : Russian
Default : Да
Forced : Да
Аудио #2
Идентификатор : 3
Формат : AC-3
Формат/Информация : Audio Coding 3
Расширение режима : CM (complete main)
Параметр Endianness формата : Big
Идентификатор кодека : A_AC3
Продолжительность : 1 ч. 53 м.
Вид битрейта : Постоянный
Битрейт : 192 Кбит/сек
Каналы : 2 канала
Расположение каналов : Front: L R
Частота : 48,0 КГц
Метод сжатия : С потерями
Размер потока : 157 Мбайт (4%)
Заголовок : Original
Язык : English
Default : Нет
Forced : Нет
Меню
00:00:00.000 : en:глава 1
00:06:28.000 : en:глава 2
00:09:28.000 : en:глава 3
00:15:05.000 : en:глава 4
00:21:35.000 : en:глава 5
00:26:54.000 : en:глава 6
00:32:36.000 : en:глава 7
00:36:53.000 : en:глава 8
00:42:16.000 : en:глава 9
00:47:29.000 : en:глава 10
00:54:39.000 : en:глава 11
00:59:28.000 : en:глава 12
01:06:20.000 : en:глава 13
01:10:22.000 : en:глава 14
01:17:47.000 : en:глава 15
01:23:19.000 : en:глава 16
01:28:08.000 : en:глава 17
01:33:42.000 : en:глава 18
01:42:22.000 : en:глава 19
01:44:28.000 : en:глава 20
Скриншоты:
Яндекс.Метрика
Рейтинг@Mail.ru