[ Сегодня на трекере фрилич! Идет свободное скачивание без начисления Download ]

Кунг-фу Панда 3 / Kung Fu Panda 3 (2016) BDRip [H.265/1080p-LQ]

 

Создавать темы 16-Июн-2016 09:32

-Кунг-фу Панда 3 / Kung Fu Panda 3 (2016) BDRip [H.265/1080p-LQ]- Производство: США, Китай
Жанр: Компьютерная анимация, Комедия, Приключения
Режиссер: Алессандро Карлони, Дженнифер Ю
Персонажи: Джек Блэк, Брайан Крэнстон, Дастин Хоффман, Анджелина Джоли, Дж.К. Симмонс, Джеки Чан, Сет Роген, Люси Лью, Дэвид Кросс, Кейт Хадсон-Описание:
Воссоединившись со своим давно потерянным отцом, По отправляется в тайный рай для панд, где его ожидает встреча с множеством веселых сородичей. Однако вскоре злодей Кай начинает зачистку — он уничтожает кунг-фу мастеров по всему Китаю.
По предстоит сделать невозможное — обучить боевому искусству деревню, полную его веселых, неуклюжих собратьев, и тем самым превратить их в отряд кунг-фу панд.-Возраст: 6+ (зрителям, достигшим 6 лет)
Рейтинг MPAA: PG (рекомендуется присутствие родителей)
Дата мировой премьеры: 16 января 2016-Продолжительность: 01:34:55
Качество видео: BDRip https://cloud.mail.ru/public/Dkmr/Cx3KM2nq8
Перевод: дублированный
Язык субтитров: русские, английские
Вид субтитров: вшитые отключаемые
Реклама: отсутствует-Видео: HEVC/H.265, 1920х816, ~2967 Kbps
Аудио 1: AAC, 6 ch, 256 Kbps, VBR, 48 KHz. Русский, дублированный
Аудио 2: AAC, 8 ch, 256 Kbps, VBR, 48 KHz. Английский

MI

General
Unique ID                   : 218414561236801003255227017941301904478 (0xA4511D47D9F5D3E7AAF305AF9E6CC45E)
Complete name               : I:\Видео\Кунг-фу Панда 3\Кунг-фу Панда 3.mkv
Format                      : Matroska
Format version              : Version 4 / Version 2
File size                   : 2.30 GiB
Duration                    : 1h 34mn
Overall bit rate            : 3 475 Kbps
Movie name                  : Kung Fu Panda 3 (2016)
Encoded date                : UTC 2016-06-16 05:58:41
Writing application         : mkvmerge v9.1.0 ('Little Earthquakes') 64bit
Writing library             : libebml v1.3.3 + libmatroska v1.4.4
Video
ID                          : 1
Format                      : HEVC
Format/Info                 : High Efficiency Video Coding
Format profile              : Main [email protected]@Main
Codec ID                    : V_MPEGH/ISO/HEVC
Duration                    : 1h 34mn
Bit rate                    : 2 967 Kbps
Width                       : 1 920 pixels
Height                      : 816 pixels
Display aspect ratio        : 2.35:1
Frame rate mode             : Constant
Frame rate                  : 23.976 (24000/1001) fps
Color space                 : YUV
Chroma subsampling          : 4:2:0
Bit depth                   : 10 bits
Bits/(Pixel*Frame)          : 0.079
Stream size                 : 1.97 GiB (85%)
Default                     : Yes
Forced                      : No
Color range                 : Limited
Color primaries             : BT.709
Transfer characteristics    : BT.709
Matrix coefficients         : BT.709
Audio #1
ID                          : 2
Format                      : AAC
Format/Info                 : Advanced Audio Codec
Format profile              : LC
Codec ID                    : A_AAC
Duration                    : 1h 34mn
Bit rate                    : 253 Kbps
Channel(s)                  : 6 channels
Channel positions           : Front: L C R, Side: L R, LFE
Sampling rate               : 48.0 KHz
Frame rate                  : 46.875 fps (1024 spf)
Compression mode            : Lossy
Delay relative to video     : 9ms
Stream size                 : 172 MiB (7%)
Title                       : Дублированный
Language                    : Russian
Default                     : Yes
Forced                      : No
Audio #2
ID                          : 3
Format                      : AAC
Format/Info                 : Advanced Audio Codec
Format profile              : HE-AAC / LC
Codec ID                    : A_AAC
Duration                    : 1h 34mn
Bit rate                    : 253 Kbps
Channel(s)                  : 7 channels
Channel(s)_Original         : 8 channels
Channel positions           : Front: L C R, Side: L R, Back: L R, LFE
Sampling rate               : 48.0 KHz / 24.0 KHz
Frame rate                  : 23.438 fps (1024 spf)
Compression mode            : Lossy
Delay relative to video     : 31ms
Stream size                 : 172 MiB (7%)
Title                       : Оригинал
Language                    : English
Default                     : No
Forced                      : No
Text #1
ID                          : 4
Format                      : UTF-8
Codec ID                    : S_TEXT/UTF8
Codec ID/Info               : UTF-8 Plain Text
Duration                    : 1h 34mn
Bit rate                    : 76 bps
Count of elements           : 1260
Stream size                 : 53.0 KiB (0%)
Title                       : Русские
Language                    : Russian
Default                     : No
Forced                      : No
Text #2
ID                          : 5
Format                      : UTF-8
Codec ID                    : S_TEXT/UTF8
Codec ID/Info               : UTF-8 Plain Text
Duration                    : 1h 29mn
Bit rate                    : 56 bps
Count of elements           : 1471
Stream size                 : 36.8 KiB (0%)
Title                       : Английские
Language                    : English
Default                     : No
Forced                      : No
Text #3
ID                          : 6
Format                      : UTF-8
Codec ID                    : S_TEXT/UTF8
Codec ID/Info               : UTF-8 Plain Text
Duration                    : 1h 29mn
Bit rate                    : 64 bps
Count of elements           : 1777
Stream size                 : 42.4 KiB (0%)
Title                       : Английские (SDH)
Language                    : English
Default                     : No
Forced                      : No
Menu
00:00:00.000                : en:Chapter 01
00:05:21.779                : en:Chapter 02
00:08:10.239                : en:Chapter 03
00:10:00.016                : en:Chapter 04
00:12:26.036                : en:Chapter 05
00:15:24.214                : en:Chapter 06
00:19:08.230                : en:Chapter 07
00:24:39.394                : en:Chapter 08
00:30:17.607                : en:Chapter 09
00:33:53.990                : en:Chapter 10
00:36:18.259                : en:Chapter 11
00:39:55.643                : en:Chapter 12
00:43:32.651                : en:Chapter 13
00:46:45.844                : en:Chapter 14
00:51:41.181                : en:Chapter 15
00:56:04.611                : en:Chapter 16
00:59:48.167                : en:Chapter 17
01:02:11.310                : en:Chapter 18
01:05:26.964                : en:Chapter 19
01:10:16.837                : en:Chapter 20
01:14:06.900                : en:Chapter 21
01:17:06.580                : en:Chapter 22
01:20:34.788                : en:Chapter 23
01:24:21.139                : en:Chapter 24
Скриншоты:
Яндекс.Метрика
Рейтинг@Mail.ru