Робот по имени Чаппи / Chappie (2015) WEB-DLRip [H.265/2160p-LQ]

 

Создавать темы 16-Июн-2016 09:15

- Робот по имени Чаппи / Chappie (2015) WEB-DLRip [H.265/2160p-LQ] - Производство: США, Мексика
Жанр: Фантастика, Боевик, Триллер, Криминал
Режиссер: Нил Бломкамп
Актеры: Шарлто Копли, Дев Патель, Ниндзя, Йоланди Фиссер, Хосе Пабло Кантильо, Хью Джекман, Сигурни Уивер, Брэндон Оре, Джонни Селема, Андерсон Купер
Описание:
Чаппи — вундеркинд. Как и любой другой ребенок, он попадает под влияние своего окружения, и только его сердце и душа помогут ему найти свой путь. Но есть одна вещь, которая делает Чаппи непохожим на всех остальных: он — первый робот, способный чувствовать и думать.-Возраст: 16+ (зрителям, достигшим 16 лет)
Рейтинг MPAA: R (лицам до 17 лет обязательно присутствие взрослого)
Дата выхода DVD/Blu-ray релиза: 11.06.2015-Релиз от: makspayn94-Продолжительность: 02:00:23
Качество видео: WEB-DLRip 2160p [thumb]http://multi-up.com/1106057[/thumb]
Перевод: Дублированный (лицензия)
Видео: HEVC/H.265, 3840x1602, ~14,7 Mbps
Аудио: AAC, 6 ch, 384 Kbps, CBR

MI

Общее
Уникальный идентификатор                 : 174731896088378361740713278740761644766 (0x8374239B8218CB2786A8B0B0979F8EDE)
Полное имя                               : D:\Кино и мультики\2015\Робот по имени Чаппи.mkv
Формат                                   : Matroska
Версия формата                           : Version 4 / Version 2
Размер файла                             : 12,7 Гбайт
Продолжительность                        : 2 ч. 0 м.
Общий поток                              : 15,1 Мбит/сек
Дата кодирования                         : UTC 2016-06-16 06:04:23
Программа кодирования                    : mkvmerge v9.2.0 ('Photograph') 64bit
Библиотека кодирования                   : libebml v1.3.3 + libmatroska v1.4.4
Видео
Идентификатор                            : 1
Формат                                   : HEVC
Формат/Информация                        : High Efficiency Video Coding
Профиль формата                          : [email protected]@Main
Идентификатор кодека                     : V_MPEGH/ISO/HEVC
Продолжительность                        : 2 ч. 0 м.
Битрейт                                  : 14,7 Мбит/сек
Ширина                                   : 3840 пикселей
Высота                                   : 1602 пикселя
Соотношение сторон                       : 2,40:1
Режим частоты кадров                     : Постоянный
Частота кадров                           : 23,976 (24000/1001) кадра/сек
Цветовое пространство                    : YUV
Субдискретизация насыщенности            : 4:2:0
Битовая глубина                          : 8 бит
Бит/(Пиксели*Кадры)                      : 0.100
Размер потока                            : 12,4 Гбайт (97%)
Библиотека кодирования                   : x265 1.9+150-00ea3784bd36:[Windows][GCC 5.3.0][64 bit] 8bit
Настройки программы                      : wpp / ctu=64 / min-cu-size=8 / max-tu-size=32 / tu-intra-depth=1 / tu-inter-depth=1 / me=1 / subme=2 / merange=57 / no-rect / no-amp / max-merge=2 / temporal-mvp / no-early-skip / rdpenalty=0 / no-tskip / no-tskip-fast / strong-intra-smoothing / no-lossless / no-cu-lossless / no-constrained-intra / no-fast-intra / open-gop / no-temporal-layers / interlace=0 / keyint=230 / min-keyint=23 / scenecut=40 / rc-lookahead=20 / lookahead-slices=8 / bframes=4 / bframe-bias=0 / b-adapt=2 / ref=3 / limit-refs=3 / no-limit-modes / weightp / no-weightb / aq-mode=1 / qg-size=32 / aq-strength=1.00 / cbqpoffs=0 / crqpoffs=0 / rd=3 / psy-rd=2.00 / rdoq-level=0 / psy-rdoq=0.00 / no-rd-refine / signhide / deblock=-3:-3 / sao / no-sao-non-deblock / b-pyramid / cutree / no-intra-refresh / rc=2 / pass / bitrate=14749 / qcomp=0.60 / qpmin=0 / qpmax=51 / qpstep=4 / cplxblur=20.0 / qblur=0.5 / ipratio=1.40 / pbratio=1.30
Default                                  : Да
Forced                                   : Нет
Аудио
Идентификатор                            : 2
Формат                                   : AAC
Формат/Информация                        : Advanced Audio Codec
Профиль формата                          : LC
Идентификатор кодека                     : A_AAC
Продолжительность                        : 2 ч. 0 м.
Битрейт                                  : 384 Кбит/сек
Каналы                                   : 6 каналов
Расположение каналов                     : Front: L C R, Side: L R, LFE
Частота                                  : 48,0 КГц
Частота кадров                           : 46,875 кадров/сек (1024 spf)
Метод сжатия                             : С потерями
Размер потока                            : 331 Мбайт (3%)
Язык                                     : Russian
Default                                  : Да
Forced                                   : Нет
Скриншоты:
Яндекс.Метрика
Рейтинг@Mail.ru