Игра престолов / Game of Thrones / Сезон: 6 / Серии: 1-8 (10) (Алан Тейлор / Alan Taylor, ...) [2016 г., фэнтези, драма, приключения, WEB-DL, 1080p] MVO (LostFilm) + Original (Eng) + Sub (Rus, Eng) [Обновляемая]

 

Создавать темы 16-Июн-2016 04:29

-Игра престолов / Game of Thrones
«Победа или смерть»
(6 сезон)
-- Производство: США, Великобритания
Жанр: фэнтези, драма, приключения
Год выпуска: 2016 г.
Продолжительность: 8x ~00:50:00Перевод: Профессиональный (многоголосый, закадровый) [LostFilm]
Оригинальный аудиопоток: английскийРежиссер: Алан Тейлор / Alan Taylor, Алекс Грейвз / Алекс Грейвз, Даниэль Минахан / Daniel Minahan ...-В ролях: Питер Динклэйдж, Лина Хиди, Эмилия Кларк, Кит Харингтон, Николай Костер-Вальдау, Мэйси Уильямс, Софи Тернер, Айзек Хемпстед-Райт, Шон Бин, Чарльз Дэнс-Описание: К концу подходит время благоденствия, и лето, длившееся почти десятилетие, угасает. Вокруг средоточия власти Семи королевств, Железного трона, зреет заговор, и в это непростое время король решает искать поддержки у друга юности Эддарда Старка. В мире, где все — от короля до наемника — рвутся к власти, плетут интриги и готовы вонзить нож в спину, есть место и благородству, состраданию и любви. Между тем, никто не замечает пробуждение тьмы из легенд далеко на Севере — и лишь Стена защищает живых к югу от нее.- -Качество видео: WEB-DL
Контейнер: MKV
Стандарт разрешения: 1080p
Видео кодек: H.264/AVC
Аудио кодек: AC3
Видео: 1912x10720 at 23.976 fps, ~5000 kbps avg
Аудио: Russian: 48 kHz, AC3, 3/2 (L,C,R,l,r) + LFE ch, ~384.00 kbps avg |Многоголосый закадровый, LostFilm|
Аудио #2: English: 48 kHz, AC3, 3/2 (L,C,R,l,r) + LFE ch, ~384.00 kbps avgCубтитры: русские (полные), английские

Список серий

01. The Red Woman / Красная женщина
02. Home / Дом
03. Oathbreaker / Нарушивший клятву
04. Book of the Stranger / Книга Неведомого
05. The Door / Дверь
06. Blood of My Blood / Кровь моей крови
07. The Broken Man / Сломленный человек
08. No One / Никто

Media Info

Код:
Format                      : Matroska
Format version              : Version 4 / Version 2
File size                   : 1.99 GiB
Duration                    : 50mn 0s
Overall bit rate            : 5 709 Kbps
Movie name                  : Game.of.Thrones.S06E01.WEB-DL1080p.Rus.Eng.
Encoded date                : UTC 2016-05-12 07:37:58
Writing application         : mkvmerge v8.2.0 ('World of Adventure') 64bit
Writing library             : libebml v1.3.1 + libmatroska v1.4.2
Attachements                : Cover
DURATION                    : 00:42:27.260000000
NUMBER_OF_FRAMES            : 458
NUMBER_OF_BYTES             : 25191
_STATISTICS_WRITING_APP     : mkvmerge v8.2.0 ('World of Adventure') 64bit
_STATISTICS_WRITING_DATE_UT : 2016-05-12 07:37:58
_STATISTICS_TAGS            : BPS DURATION NUMBER_OF_FRAMES NUMBER_OF_BYTESVideo
ID                          : 1
Format                      : AVC
Format/Info                 : Advanced Video Codec
Format profile              : [email protected]/*  */
Format settings, CABAC      : Yes
Format settings, ReFrames   : 4 frames
Codec ID                    : V_MPEG4/ISO/AVC
Duration                    : 50mn 0s
Bit rate                    : 4 827 Kbps
Width                       : 1 912 pixels
Height                      : 1 072 pixels
Display aspect ratio        : 16:9
Frame rate mode             : Constant
Frame rate                  : 23.976 fps
Color space                 : YUV
Chroma subsampling          : 4:2:0
Bit depth                   : 8 bits
Scan type                   : Progressive
Bits/(Pixel*Frame)          : 0.098
Stream size                 : 1.69 GiB (85%)
Language                    : English
Default                     : Yes
Forced                      : No
Color primaries             : BT.709
Transfer characteristics    : BT.709
Matrix coefficients         : BT.709
Color range                 : LimitedAudio #1
ID                          : 2
Format                      : AC-3
Format/Info                 : Audio Coding 3
Mode extension              : CM (complete main)
Format settings, Endianness : Big
Codec ID                    : A_AC3
Duration                    : 50mn 0s
Bit rate mode               : Constant
Bit rate                    : 384 Kbps
Channel(s)                  : 6 channels
Channel positions           : Front: L C R, Side: L R, LFE
Sampling rate               : 48.0 KHz
Bit depth                   : 16 bits
Compression mode            : Lossy
Stream size                 : 137 MiB (7%)
Title                       : LostFilm
Language                    : Russian
Default                     : Yes
Forced                      : NoAudio #2
ID                          : 3
Format                      : AC-3
Format/Info                 : Audio Coding 3
Mode extension              : CM (complete main)
Format settings, Endianness : Big
Codec ID                    : A_AC3
Duration                    : 50mn 0s
Bit rate mode               : Constant
Bit rate                    : 384 Kbps
Channel(s)                  : 6 channels
Channel positions           : Front: L C R, Side: L R, LFE
Sampling rate               : 48.0 KHz
Bit depth                   : 16 bits
Compression mode            : Lossy
Stream size                 : 137 MiB (7%)
Language                    : English
Default                     : No
Forced                      : NoText #1
ID                          : 4
Format                      : UTF-8
Codec ID                    : S_TEXT/UTF8
Codec ID/Info               : UTF-8 Plain Text
Language                    : Russian
Default                     : No
Forced                      : NoText #2
ID                          : 5
Format                      : UTF-8
Codec ID                    : S_TEXT/UTF8
Codec ID/Info               : UTF-8 Plain Text
Language                    : English
Default                     : No
Forced                      : No

Скриншот c названием фильма

Скриншоты

Яндекс.Метрика
Рейтинг@Mail.ru