(Heavy Metal, Hard Rock) Motorhead - Clean Your Clock-(Live album) [FLAC, image+.cue, lossless]

 

Создавать темы 16-Июн-2016 04:25

-Motorhead - Clean Your Clock-(Live album)-- Год издания: 2016
Страна: London, England, UK
Жанр: Heavy Metal, Hard Rock
Продолжительность: 01:14:09-Лейбл издания: UDR
Тип альбома: Live
Страна-выпуска диска: June 10th, 2016, Europe
Номер по каталогу: UDR062P04
Источник (релизер): RMT-Формат: FLAC
Битрейт аудио: lossless
Тип рипа: image+.cue
Наличие сканов в содержимом раздачи: да-

Трэклист

01. Bomber
02. Stay Clean
03. Metropolis
04. When The Sky Comes Looking For You
05. ver The Top
06. Guitar Solo
07. The Chase Is Better Than The Catch
08. Lost Woman Blues
09. Rock It
10. Orgasmatron
11. Doctor Rock
12. Just 'Cos You Got The Power
13. No Class
14. Ace Of Spades
15. Whorehouse Blues
16. Overkill
-

Лог создания рипа

Exact Audio Copy V1.0 beta 3 from 29. August 2011EAC extraction logfile from 11. June 2016, 11:43Motörhead / Clean Your ClockUsed drive : HL-DT-STDVD-RAM GH15L Adapter: 4 ID: 0Read mode : Secure
Utilize accurate stream : Yes
Defeat audio cache : Yes
Make use of C2 pointers : NoRead offset correction : 667
Overread into Lead-In and Lead-Out : No
Fill up missing offset samples with silence : Yes
Delete leading and trailing silent blocks : No
Null samples used in CRC calculations : Yes
Used interface : Native Win32 interface for Win NT & 2000Used output format : User Defined Encoder
Selected bitrate : 1024 kBit/s
Quality : High
Add ID3 tag : Yes
Command line compressor : C:\Program Files (x86)\Exact Audio Copy\Flac\flac.exe
Additional command line options : -6 -V -T "ARTIST=%artist%" -T "TITLE=%title%" -T "ALBUM=%albumtitle%" -T "DATE=%year%" -T "TRACKNUMBER=%tracknr%" -T "GENRE=%genre%" -T "COMMENT=%comment%" -T "BAND=%albuminterpret%" -T "ALBUMARTIST=%albuminterpret%" -T "COMPOSER=%composer%" %haslyrics%--tag-from-file=LYRICS="%lyricsfile%"%haslyrics% -T "DISCNUMBER=%cdnumber%" -T "TOTALDISCS=%totalcds%" -T "TOTALTRACKS=%numtracks%" %hascover%--picture="%coverfile%"%hascover% %source% -o %dest%TOC of the extracted CD Track | Start | Length | Start sector | End sector
---------------------------------------------------------
1 | 0:00.00 | 3:35.56 | 0 | 16180
2 | 3:35.56 | 3:20.30 | 16181 | 31210
3 | 6:56.11 | 4:10.67 | 31211 | 50027
4 | 11:07.03 | 3:46.11 | 50028 | 66988
5 | 14:53.14 | 2:53.13 | 66989 | 79976
6 | 17:46.27 | 1:59.65 | 79977 | 88966
7 | 19:46.17 | 5:08.73 | 88967 | 112139
8 | 24:55.15 | 4:43.49 | 112140 | 133413
9 | 29:38.64 | 3:08.23 | 133414 | 147536
10 | 32:47.12 | 5:47.19 | 147537 | 173580
11 | 38:34.31 | 8:57.37 | 173581 | 213892
12 | 47:31.68 | 5:57.08 | 213893 | 240675
13 | 53:29.01 | 3:13.44 | 240676 | 255194
14 | 56:42.45 | 3:50.31 | 255195 | 272475
15 | 60:33.01 | 4:36.34 | 272476 | 293209
16 | 65:09.35 | 8:59.35 | 293210 | 333669Range status and errorsSelected range Filename C:\Users\DAREK\Desktop\MOTORHEAD [2016] [CD] Clean Your Clock\Motörhead - Clean Your Clock.wav Peak level 100.0 %
Extraction speed 6.6 X
Range quality 100.0 %
Test CRC 150FA063
Copy CRC 150FA063
Copy OKNo errors occurredAccurateRip summaryTrack 1 not present in database
Track 2 not present in database
Track 3 not present in database
Track 4 not present in database
Track 5 not present in database
Track 6 not present in database
Track 7 not present in database
Track 8 not present in database
Track 9 not present in database
Track 10 not present in database
Track 11 not present in database
Track 12 not present in database
Track 13 not present in database
Track 14 not present in database
Track 15 not present in database
Track 16 not present in databaseNone of the tracks are present in the AccurateRip databaseEnd of status report
-

Индексная карта (non-compilant .cue)

REM GENRE Heavy Metal, Hard Rock
REM DATE 2016
REM COMMENT 2016, Europe, First Press, Digipack, DR6
PERFORMER "Motцrhead"
TITLE "Clean Your Clock"
FILE "Motцrhead - Clean Your Clock.flac" WAVE
TRACK 01 AUDIO
TITLE "Bomber"
INDEX 01 00:00:00
TRACK 02 AUDIO
TITLE "Stay Clean"
INDEX 01 03:35:56
TRACK 03 AUDIO
TITLE "Metropolis"
INDEX 01 06:56:11
TRACK 04 AUDIO
TITLE "When the Sky Comes Looking For You"
INDEX 01 11:07:03
TRACK 05 AUDIO
TITLE "Over The Top"
INDEX 01 14:53:14
TRACK 06 AUDIO
TITLE "Guitar Solo"
INDEX 01 17:46:27
TRACK 07 AUDIO
TITLE "The Chase Is Better Than The Catch"
INDEX 01 19:46:17
TRACK 08 AUDIO
TITLE "Lost Woman Blues"
INDEX 01 24:55:15
TRACK 09 AUDIO
TITLE "Rock It"
INDEX 01 29:38:64
TRACK 10 AUDIO
TITLE "Orgasmatron"
INDEX 01 32:47:12
TRACK 11 AUDIO
TITLE "Doctor Rock"
INDEX 01 38:34:31
TRACK 12 AUDIO
TITLE "Just 'Cos You Got The Power"
INDEX 01 47:31:68
TRACK 13 AUDIO
TITLE "No Class"
INDEX 01 53:29:01
TRACK 14 AUDIO
TITLE "Ace Of Spades"
INDEX 01 56:42:45
TRACK 15 AUDIO
TITLE "Whorehouse Blues"
INDEX 01 60:33:01
TRACK 16 AUDIO
TITLE "Overkill"
INDEX 01 65:09:35
-

Скриншот спектра частот

-----
Яндекс.Метрика
Рейтинг@Mail.ru