Код Да Винчи / The Da Vinci Code (2006) BDRip 720p | Extended Cut | 60 fps

 

Создавать темы 15-Июн-2016 23:08

«So Dark The Con of Man»- Название: Код Да Винчи
Оригинальное название: The Da Vinci Code
Год выхода: 2006
Жанр: триллер, детектив
Режиссер: Рон Ховард
Сценарий: Акива Голдсман, Дэн Браун
Продюсер: Джон Калли, Брайан Грейзер, Рон Ховард
В ролях:
Том Хэнкс, Одри Тоту, Иэн МакКеллен, Жан Рено, Пол Беттани, Альфред Молина, Юрген Прохнов, Жан-Ив Бертелут, Этьен Шико, Жан-Пьер Марьель, Мари-Франсуа Одоллент, Рита Дейвис--Сюжет:
Гарвардского профессора Роберта Лэнгдона подозревают в чудовищном преступлении, которого он не совершал. Лэнгдон знакомится с криптографом парижской полиции Софи Невё и вместе с ней пытается раскрыть тайну, которая может подорвать могущество католической церкви.
Роберт и Софи должны это сделать до того, как их схватят блюстители закона или остановят противники, готовые на все ради сохранения великого религиозного секрета…
-Страна: США, Мальта, Франция, Великобритания
Продолжительность: 02:54:37
Файл
Кодек: MPEG4/ISO/AVC H.264
Формат: MKV
Качество: BDRip 720p | 60 fps
Видео: 1280 x 534 (2.397) | 59.940 fps | 8.0 Мбит/сек
Аудио 1: AC3 | 5.1 | 48 kHz | 448 kbps | 16 bit | Профессиональный ( полное дублирование + многоголосый закадровый на расширенные моменты ) |
Аудио 2: AC3 | 5.1 | 48 kHz | 448 kbps | 16 bit | Профессиональный (многоголосый, закадровый) BD CEE |
Аудио 3: AC3 | 5.1 | 48 kHz | 384 kbps | 16 bit | Профессиональный (многоголосый, закадровый) Киномания |
Аудио 4: AC3 | 5.1 | 48 kHz | 448 kbps | 16 bit | Авторский (двуголосый, закадровый) П.Гланц и И.Королёва |
Аудио 5: AC3 | 5.1 | 48 kHz | 448 kbps | 16 bit | Авторский (одноголосый, закадровый) А.Гаврилов |
Аудио 6: AC3 | 5.1 | 48 kHz | 448 kbps | 16 bit | ENG |
Субтитры: Русские (2 варианта, комментарии), Eng, Украинские (*.srt, отключаемые)

MedifInfo

Видео
Идентификатор : 1
Формат : AVC
Формат/Информация : Advanced Video Codec
Профиль формата : [email protected]
Параметр CABAC формата : Да
Параметр ReFrames формата : 3 кадра
Идентификатор кодека : V_MPEG4/ISO/AVC
Продолжительность : 2 ч. 54 м.
Вид битрейта : Переменный
Битрейт : 7694 Кбит/сек
Максимальный битрейт : 8000 Кбит/сек
Ширина : 1280 пикселей
Высота : 534 пикселя
Соотношение сторон : 2,40:1
Режим частоты кадров : Постоянный
Частота кадров : 59,880 кадров/сек
Частота кадров в оригинале : 59,940 кадров/сек
Стандарт вещания : PAL
Цветовое пространство : YUV
Субдискретизация насыщенности : 4:2:0
Битовая глубина : 8 бит
Тип развёртки : Прогрессивная
Бит/(Пиксели*Кадры) : 0.188
Размер потока : 9,39 Гбайт (73%)
Язык : English
Default : Да
Forced : Нет
Основные цвета : BT.601 NTSC
Характеристики трансфера : BT.601
Коэффициенты матрицы : BT.601
colour_range : Limited
Аудио #1
Идентификатор : 2
Формат : AC-3
Формат/Информация : Audio Coding 3
Расширение режима : CM (complete main)
Параметр Endianness формата : Big
Идентификатор кодека : A_AC3
Продолжительность : 2 ч. 54 м.
Вид битрейта : Постоянный
Битрейт : 448 Кбит/сек
Каналы : 6 каналов
Расположение каналов : Front: L C R, Side: L R, LFE
Частота : 48,0 КГц
Битовая глубина : 16 бит
Метод сжатия : С потерями
Размер потока : 560 Мбайт (4%)
Заголовок : Дубляж + многоголоска
Язык : Russian
Default : Да
Forced : Нет
Аудио #2
Идентификатор : 3
Формат : AC-3
Формат/Информация : Audio Coding 3
Расширение режима : CM (complete main)
Параметр Endianness формата : Big
Идентификатор кодека : A_AC3
Продолжительность : 2 ч. 54 м.
Вид битрейта : Постоянный
Битрейт : 448 Кбит/сек
Каналы : 6 каналов
Расположение каналов : Front: L C R, Side: L R, LFE
Частота : 48,0 КГц
Битовая глубина : 16 бит
Метод сжатия : С потерями
Размер потока : 560 Мбайт (4%)
Заголовок : BD CEE
Default : Нет
Forced : Нет
Аудио #3
Идентификатор : 4
Формат : AC-3
Формат/Информация : Audio Coding 3
Расширение режима : CM (complete main)
Параметр Endianness формата : Big
Идентификатор кодека : A_AC3
Продолжительность : 2 ч. 54 м.
Вид битрейта : Постоянный
Битрейт : 384 Кбит/сек
Каналы : 6 каналов
Расположение каналов : Front: L C R, Side: L R, LFE
Частота : 48,0 КГц
Битовая глубина : 16 бит
Метод сжатия : С потерями
Размер потока : 480 Мбайт (4%)
Заголовок : Киномания
Default : Нет
Forced : Нет
Аудио #4
Идентификатор : 5
Формат : AC-3
Формат/Информация : Audio Coding 3
Расширение режима : CM (complete main)
Параметр Endianness формата : Big
Идентификатор кодека : A_AC3
Продолжительность : 2 ч. 54 м.
Вид битрейта : Постоянный
Битрейт : 448 Кбит/сек
Каналы : 6 каналов
Расположение каналов : Front: L C R, Side: L R, LFE
Частота : 48,0 КГц
Битовая глубина : 16 бит
Метод сжатия : С потерями
Размер потока : 560 Мбайт (4%)
Заголовок : П.Гланц и И.Королёва
Default : Нет
Forced : Нет
Аудио #5
Идентификатор : 6
Формат : AC-3
Формат/Информация : Audio Coding 3
Расширение режима : CM (complete main)
Параметр Endianness формата : Big
Идентификатор кодека : A_AC3
Продолжительность : 2 ч. 54 м.
Вид битрейта : Постоянный
Битрейт : 448 Кбит/сек
Каналы : 6 каналов
Расположение каналов : Front: L C R, Side: L R, LFE
Частота : 48,0 КГц
Битовая глубина : 16 бит
Метод сжатия : С потерями
Размер потока : 560 Мбайт (4%)
Заголовок : А.Гаврилов
Default : Нет
Forced : Нет
Аудио #6
Идентификатор : 7
Формат : AC-3
Формат/Информация : Audio Coding 3
Расширение режима : CM (complete main)
Параметр Endianness формата : Big
Идентификатор кодека : A_AC3
Продолжительность : 2 ч. 54 м.
Вид битрейта : Постоянный
Битрейт : 448 Кбит/сек
Каналы : 6 каналов
Расположение каналов : Front: L C R, Side: L R, LFE
Частота : 48,0 КГц
Битовая глубина : 16 бит
Метод сжатия : С потерями
Размер потока : 560 Мбайт (4%)
Заголовок : ENG
Язык : English
Default : Нет
Forced : Нет
Текст #1
Идентификатор : 8
Формат : UTF-8
Идентификатор кодека : S_TEXT/UTF8
Идентификатор кодека/Информация : UTF-8 Plain Text
Заголовок : Полные #1
Язык : Russian
Default : Да
Forced : Нет
Текст #2
Идентификатор : 9
Формат : UTF-8
Идентификатор кодека : S_TEXT/UTF8
Идентификатор кодека/Информация : UTF-8 Plain Text
Заголовок : Полные #2
Язык : Russian
Default : Нет
Forced : Нет
Текст #3
Идентификатор : 10
Формат : UTF-8
Идентификатор кодека : S_TEXT/UTF8
Идентификатор кодека/Информация : UTF-8 Plain Text
Заголовок : Комментарии режиссера
Язык : Russian
Default : Нет
Forced : Нет
Текст #4
Идентификатор : 11
Формат : UTF-8
Идентификатор кодека : S_TEXT/UTF8
Идентификатор кодека/Информация : UTF-8 Plain Text
Заголовок : Полные
Язык : English
Default : Нет
Forced : Нет
Текст #5
Идентификатор : 12
Формат : UTF-8
Идентификатор кодека : S_TEXT/UTF8
Идентификатор кодека/Информация : UTF-8 Plain Text
Заголовок : Полные
Язык : Ukrainian
Default : Нет
Forced : Нет
Меню
00:00:00.000 : en:00:00:00.000
00:10:09.233 : en:00:10:09.233
00:17:27.463 : en:00:17:27.463
00:31:01.192 : en:00:31:01.192
00:38:14.417 : en:00:38:14.417
00:52:07.833 : en:00:52:07.833
01:06:43.040 : en:01:06:43.040
01:18:50.392 : en:01:18:50.392
01:27:39.003 : en:01:27:39.003
01:34:35.419 : en:01:34:35.419
01:49:19.302 : en:01:49:19.302
02:01:19.355 : en:02:01:19.355
02:08:03.842 : en:02:08:03.842
02:18:17.664 : en:02:18:17.664
02:29:55.861 : en:02:29:55.861
02:37:31.150 : en:02:37:31.150

Скриншоты:

Яндекс.Метрика
Рейтинг@Mail.ru