Королева викингов / The Viking Queen (Дон Чэффи / Don Chaffey) [1967 г., приключения, DVDRip] MVO [5 кан СпБ]

 

Создавать темы 15-Июн-2016 03:52

-Королева викингов / The Viking Queen-- Производство: Великобритания, Hammer Film Productions Limited, Seven Arts Productions
Год выпуска: 1967 г.
Жанр: приключения
Продолжительность: 01:27:00Мировая премьера: 25 марта 1967
Перевод: Профессиональный (многоголосый, закадровый) [5 кан СпБ]
Режиссер: Дон Чэффи / Don Chaffey-В ролях: Дон Мюррэй (Justinian), Карита (Salina), Дональд Хьюстон (Maelgan), Эндрю Кир (Octavian), Эдриенн Корри (Beatrice), Ниалл МакГиннис (Tiberian), Уилфрид Лоусон (King Priam), Никола Паже (Talia), Перси Херберт (Catus), Патрик Тротон (Tristram), Шон Кэффри (Fergus), Дэнис Шоу (Osiris)-Описание: В первые века после Рождества Христова Великая Римская Империя завоевывала все больше и больше стран, поглощая территории современных Греции, Турции, Северной Африки, арабского Востока, Франции. И, наконец, они достигли, как они сами считали, края света. Это был последний рубеж на пути Империи - Британия. Это была земля, где друиды имели полную власть над телами и душами людей. И они предрекли, что однажды женщина наденет военные доспехи и поднимет меч против римлян. И это будет Королева Викингов...Выполняя волю умирающего отца, королева Салина делит власть с римлянином Юстинианом. Это не устраивает кровожадных жрецов-друидов. Они плетут заговор против Салины, которая влюбляется в римлянина...-
Качество видео: DVDRip
Контейнер: AVI
Видео кодек: XviD
Аудио кодек: AC3
Видео: 704x384 (1.83:1), 25 fps, XviD build 50 ~2193 kbps avg, 0.32 bit/pixel
Аудио: 48 kHz, AC3 Dolby Digital, 2/0 (L,R) ch, ~192 kbps
В сценах без перевода - вшитые субтитры.
Cубтитры: отсутствуют

Рецензия

Красивый, эпический исторический английский фильм 67го года. Мне он понравился даже больше чем Викинги с Дугласом и Кертисом. Довольно интересная и в меру закрученная история, много важных перепитий, батальных сцен и внятная любовная линия.Главный раздражитель в фильме это присутствие викингов в названии. Даже в фильме ее называют Королевой викингов, хотя на самом деле ни одного викинга в фильме не появляется. На самом деле фильм о борьбе бриттов и друидов против римлян, и никаких викингов тут и в помине нет. Это, конечно, меня подбешивало весь фильм, но в целом все равно очень даже приличное кино, с хорошими актерскими работами. Был сильно удивлен, что это была лишь вторая, но последняя роль финки по имени Карита, которая играет королеву. Больше в кино она не снималась, хотя тут произвела на меня впечатление. Вообще, похоже фильм достаточно неизвестный, что несомненно упущение.Качественное и увлекательное кино для всех любителей исторических эпиков.7 из 10

Media Info

Общее
Полное имя : J:\Королева викингов\Koroleva Vikingov.DVDRip.1967.[pirat.ca].avi
Формат : AVI
Формат/Информация : Audio Video Interleave
Размер файла : 1,46 Гбайт
Продолжительность : 1 ч. 27 м.
Общий поток : 2396 Кбит/сек
Название фильма : Королева викингов.The Viking Queen.[pirat.ca]
Программа кодирования : VirtualDubMod 1.5.10.2 (build 2540/release)Видео
Идентификатор : 0
Формат : MPEG-4 Visual
Профиль формата : Advanced [email protected]/* */
Параметр BVOP формата : 1
Параметр QPel формата : Нет
Параметр GMC формата : Без точки перехода
Параметр матрицы формата : Выборочная
Идентификатор кодека : XVID
Идентификатор кодека/Подсказка : XviD
Продолжительность : 1 ч. 27 м.
Битрейт : 2194 Кбит/сек
Ширина : 704 пикселя
Высота : 384 пикселя
Соотношение сторон : 1,85:1
Частота кадров : 25,000 кадров/сек
Цветовое пространство : YUV
Субдискретизация насыщенности : 4:2:0
Битовая глубина : 8 бит
Тип развёртки : Прогрессивная
Метод сжатия : С потерями
Бит/(Пиксели*Кадры) : 0.325
Размер потока : 1,33 Гбайт (92%)
Библиотека кодирования : XviD 1.2.1 (UTC 2008-12-04)Аудио
Идентификатор : 1
Формат : AC-3
Формат/Информация : Audio Coding 3
Расширение режима : CM (complete main)
Параметр Endianness формата : Big
Идентификатор кодека : 2000
Продолжительность : 1 ч. 27 м.
Вид битрейта : Постоянный
Битрейт : 192 Кбит/сек
Каналы : 2 канала
Расположение каналов : Front: L R
Частота : 48,0 КГц
Частота кадров : 31,250 кадров/сек (1536 spf)
Метод сжатия : С потерями
Размер потока : 119 Мбайт (8%)
Выравнивание : Разделение по промежуткам
Продолжительность промежутка : 40 мс. (1,00 видеокадр)
Время предзагрузки промежутка : 500 мс.

Скриншот c названием фильма

Скриншоты

Яндекс.Метрика
Рейтинг@Mail.ru