[ Сегодня на трекере фрилич! Идет свободное скачивание без начисления Download ]

Петля времени / Looper (Райан Джонсон / Rian Johnson) [2012 г., фантастический боевик, триллер, HDRip] [Extended cut] AVO (Володарский) VO (Дасевич)

 

Создавать темы 31-Дек-2013 15:21

-Петля времени / Looper (Extended cut)-- Год выпуска: 2012
Производство: США, Китай, TriStar, DMG, Endgame
Жанр: фантастический боевик, триллер
Продолжительность: 01:58:53-Перевод: Авторский (одноголосый, закадровый) Володарский
Перевод 2: Профессиональный (одноголосый, закадровый) Дасевич-Субтитры: отсутствуют
Режиссер: Райан Джонсон / Rian Johnson-В ролях: Джозеф Гордон-Левитт, Брюс Уиллис, Эмили Блант, Джефф Дэниелс, Ноа Сеган, Пирс Гэнон, Пол Дано, Пайпер Перабо, Квинг Ксу, Трейси Томс, Фрэнк Бреннан, Гаррет Диллахант, Николас Шон Гомез, Маркус Хестер, Джон Эйз, Кевин Стиллвелл, Тирл Хастон, Джеймс Хеберт, Кеннет Браун мл., Коуди Вуд, Адам Бойер, Джефф Чейз, Ричи Монтгомери, Дэвид Дженсен, Камден Бошан, Джош Перри, Дэвид Мартинез, Уэйн Дихарт, Йен Патрик, Райан Джонсон, Роберт Харви, Дэйн Родс, Ан Нуу Нгуйен--Описание: В недалёком будущем стало абсолютно невозможно отделаться от трупов неугодных людей. Но появляется "человек ниоткуда", прозванный за мистически невероятные способности Шаманом и за полгода становится самым могущественным мафиози. Он, используя очень дорогостоящие достижения науки будущего, выбрасывает своих врагов в 2044 год. А там, отправленный в один конец его помощник организовал место их приёма и убийства. Жертвы появлялись связанные, в точно назначенное время. Голову их скрывал мешок, а на спине была закреплена оплата в виде серебряных слитков. Луперам (замыкателям петли времени) оставалось только пристрелить их и снять со спины оплату за убийство. Если же лупер находил золотые слитки, то это означало, что он убил самого себя и замкнул собственную петлю времени. Жить ему оставалось максимум 30 лет. Луперы это знали и работали для накопления на этот остаток жизни, мечтая прожить его всласть. Но игра со временем всегда преподносит сюрпризы...-- - -Качество видео: HDRip
Контейнер: AVI
Видео кодек: XviD
Аудио кодек: AC3
Видео: 720x304 (2.37:1), 23.976 fps, XviD MPEG-4 ~1791 kbps avg, 0.34 bit/pixel-Аудио : 48 kHz, AC3 Dolby Digital, 3/2 (L,C,R,l,r) + LFE ch, ~448 kbps - Володарский
Аудио #2: 48 kHz, AC3 Dolby Digital, 3/2 (L,C,R,l,r) + LFE ch, ~448 kbps - Дасевич-

Кванты

I frames: 1973 frames, size = 51264/101144037, quants = 2 / 2.00 / 2
P frames: 85932 frames, size = 11477/986271334, quants = 2 / 2.00 / 2
B frames: 83118 frames, size = 6020/500412446, quants = 2 / 2.00 / 2

Рецензия

Моя рецензия к фильму «Петля времени»
Тема путешествий во времени сплывает в американском кинематографе довольно редко. Наверное потому, что нужно в ходе просмотра фильмов такой категории «ломать мозг» кто, откуда и куда, а самое главное зачем. Оттого и в прокате набирают денег мало и не пользуются популярностью у «попкорнового зрителя». А мне лично нравится. И каждый просмотр такого рода фильмов для меня в радость.
Радость вдвойне, когда в фильме известный актер - Уиллис, втройне, когда 2 известных актера (Уиллис и Гордон-Левит), ну и так далее, а еще круче – когда в авторском.
Картина «Петля времени» несмотря на приличную заштампованность, хотя-бы имеет некую мораль. Поступай так - как хочешь чтобы поступили с тобой. Вокруг того все и вертится….
Больше размышлять некогда, на носу Новый год!
В целом это добротный фантастический экшн с элементами путешествий во времени, в котором главный герой как всегда пытается спасти сам себя.
Приятного просмотра и мои 8 из 10

Media Info

General
Complete name : G:\На пиратку\! не розданные\Петля времени.2012.BDRip.dub_byGross\Петля времени.2012.BDRip.Volodarsky.Dasevich_byGross.avi
Format : AVI
Format/Info : Audio Video Interleave
Format profile : OpenDML
File size : 2.24 GiB
Duration : 1h 58mn
Overall bit rate : 2 695 Kbps
Writing application : VirtualDubMod 1.5.10.2 (build 2540/release)
Writing library : VirtualDubMod build 2540/release
Video
ID : 0
Format : MPEG-4 Visual
Format profile : Advanced [email protected]
Format settings, BVOP : 1
Format settings, QPel : No
Format settings, GMC : No warppoints
Format settings, Matrix : Custom
Codec ID : XVID
Codec ID/Hint : XviD
Duration : 1h 58mn
Bit rate : 1 781 Kbps
Width : 720 pixels
Height : 304 pixels
Display aspect ratio : 2.35:1
Frame rate : 23.976 fps
Color space : YUV
Chroma subsampling : 4:2:0
Bit depth : 8 bits
Scan type : Progressive
Compression mode : Lossy
Bits/(Pixel*Frame) : 0.339
Stream size : 1.48 GiB (66%)
Writing library : XviD 73
Audio #1
ID : 1
Format : AC-3
Format/Info : Audio Coding 3
Mode extension : CM (complete main)
Codec ID : 2000
Duration : 1h 58mn
Bit rate mode : Constant
Bit rate : 448 Kbps
Channel(s) : 6 channels
Channel positions : Front: L C R, Side: L R, LFE
Sampling rate : 48.0 KHz
Bit depth : 16 bits
Compression mode : Lossy
Stream size : 381 MiB (17%)
Alignment : Split accross interleaves
Interleave, duration : 42 ms (1.00 video frame)
Interleave, preload duration : 500 ms
Audio #2
ID : 2
Format : AC-3
Format/Info : Audio Coding 3
Mode extension : CM (complete main)
Codec ID : 2000
Duration : 1h 58mn
Bit rate mode : Constant
Bit rate : 448 Kbps
Channel(s) : 6 channels
Channel positions : Front: L C R, Side: L R, LFE
Sampling rate : 48.0 KHz
Bit depth : 16 bits
Compression mode : Lossy
Stream size : 381 MiB (17%)
Alignment : Split accross interleaves
Interleave, duration : 42 ms (1.00 video frame)
Interleave, preload duration : 500 ms

Доп. информация

РИП
Исходник свой BDRip 1080р
Дороги с раздачи ChuckNorriss (ХДТрэкер)
Цитата:
За перевод Володарского большое спасибо пользователям форума forum.hdtracker.org: shitman82, Хerman13, Denis2251, denis_mgn_1987, _MyxAmoP_ , Hattori Hanzo, Schmulke, v111o, dunhill200, Chistobaev, lexal, olegsoleg, nimph, Letyoha3, karantin66, SavineX, Maldivess, feldeger, foxlight, Role, -Джосс-, audiolubitel, Rolly Tyler, Brown15, Диммон, Skoped, MeGUI, Видео, Luka69, shtift, Loki, furria62, TOMAN, Gross1978, Pain_70.

Скриншоты

Яндекс.Метрика
Рейтинг@Mail.ru