Одинокий рейнджер / The Lone Ranger (Гор Вербински / Gore Verbinski) [2013 г., Приключения, фантастика, вестерн, HDRip] AVO (Сербин, Володарский)

 

Создавать темы 31-Дек-2013 15:20

Одинокий рейнджер / The Lone Ranger
-Год выпуска: 2013
Производство: США, Walt Disney, Jerry Bruckheimer Films
Жанр: Приключения, фантастика, вестерн
Продолжительность: 02:29:33-Перевод: Авторский (одноголосый, закадровый) Сербин
Перевод 2: Авторский (одноголосый, закадровый) Володарский-Субтитры: отсутствуют-Режиссер: Гор Вербински / Gore Verbinski-В ролях: Джонни Депп, Арми Хаммер, Хелена Бонем Картер, Уильям Фихтнер, Том Уилкинсон, Бэрри Пеппер, Джеймс Бэдж Дэйл, Рут Уилсон, Мэйсон Кук, Мэтт О`Лири--Описание: История блюстителя закона Джона Рейда, который с помощью индейца Тонто стал легендарным мстителем в маске, стоящим на защите справедливости. Тонто с юмором и небылицами повествует о тех приключениях, которые пришлось пережить двум непохожим друг на друга героям, сведенным судьбой для того чтобы вместе сражаться против общего врага. Им приходится противостоять жадности и коррупции во времена, когда появление первых железных дорог изменило представление о власти и могуществе в мире.-- - -Качество видео: HDRip
Контейнер: AVI
Видео кодек: XviD
Аудио кодек: AC3
Видео: 720x304 (2.37:1), 23.976 fps, XviD build 73 ~1812 kbps avg, 0.34 bit/pixel-Аудио : 48 kHz, AC3 Dolby Digital, 3/2 (L,C,R,l,r) + LFE ch, ~384 kbps - Сербин
Аудио 2: 48 kHz, AC3 Dolby Digital, 3/2 (L,C,R,l,r) + LFE ch, ~448 kbps - Володарский-

кванты

I frames: 3102 frames, size = 22388/69449884, quants = 2 / 2.00 / 2
P frames: 109415 frames, size = 13798/1509784184, quants = 2 / 2.00 / 2
B frames: 102619 frames, size = 4365/447955830, quants = 3 / 3.00 / 3

Моя рецензия (есть спойлеры)

ОДИНОКИЙ РЕЙНДЖЕР
«По птице времени не узнать….» Начну с этих слов свою рецензию новому американскому фильму «Одинокий рейнджер». История избитая, переистолкованная и миллион раз показанная зрителю в разных интерпретациях и от того так мила и привычна. Итак, дикий запад, освоение материка американцами, вытеснение индейцев. На этом фоне в зачуханный городок приезжает прокурор – «Законник» только что, судя по всему, закончивший тамошний юридический колледж, по нашему просто «фабзай», в «розовых очках», которые ему похоже предстоит снять в ближайшее время, поскольку «дикий запад» есть «дикий запад», там как-то сурово все…...
Дальше по ухабам да по кочкам побежал сюжет, как в классическом Индиане Джонсе – с приключениями, шутками да прибаутками.
Как по мне хороший приключенческий экшн в стиле Уолта Диснея и им же снятый, вернее спродюсированный, для детей лет 12 (двенадцати), и тут что интересно, к созданию фильма видимо значительно приложил свои загребущие ручки товарищ Брюкхаймер, ну который раньше с ныне покойным Симпсоном экшн-боевики снимал. Очень уж они любили всякие крупные планы летящих предметов, отрывающихся от транспортных средств снимать, что и в этом фильме присутствует. Достойная как всегда работа композитора Ханса Циммера. Музыка в фильме что нужно, очень четко вписывается в картинку. Как всегда обворожительна Хелена Бонем Картер, в отведенной ей небольшой роли…. Коняка и ворона просто «улыбнули»…
Из не понравившегося, отмечу ныне модную в Голливуде «фишечку» продвигать молодых актеров, посредством известных старых. И этот фильм, к сожалению, настигла та же участь – Известный Джонни Депп продвигает почти не известного Арми Хаммера. Депп, кстати, ничего нового в роль «индейца» от роли «Джека Воробья» не превнес, все те же гримасы, все те же смешные телодвижения. Смотрю и думаю, и нафига тут Джек Воробей….
В общем не зря в одной из последних сцен был показан кадр как кролик (кстате в фильме - это реально смешные твари) поедает скорпиона. Похоже начинается новый виток развития Голливудского кинематографа – полная смена актеров. Старая «гвардия» уже доживает свой век, грядет время больших перемен когда кролики, блин, белые и пушистые, сожрут всех скорпионов.
Моя оценка 7 из 10.

Media Info

General
Complete name : G:\На пиратку\! не розданные\TheLoneRanger.2013.BDRip.Serbin_byGross.avi
Format : AVI
Format/Info : Audio Video Interleave
Format profile : OpenDML
File size : 2.30 GiB
Duration : 2h 29mn
Overall bit rate : 2 203 Kbps
Writing application : VirtualDubMod 1.5.10.3 | www.virtualdub-fr.org || (build 2550/release)
Writing library : VirtualDubMod build 2550/release
Video
ID : 0
Format : MPEG-4 Visual
Format profile : Advanced [email protected]
Format settings, BVOP : 1
Format settings, QPel : No
Format settings, GMC : No warppoints
Format settings, Matrix : Custom
Codec ID : XVID
Codec ID/Hint : XviD
Duration : 2h 29mn
Bit rate : 1 807 Kbps
Width : 720 pixels
Height : 304 pixels
Display aspect ratio : 2.35:1
Frame rate : 23.976 fps
Color space : YUV
Chroma subsampling : 4:2:0
Bit depth : 8 bits
Scan type : Progressive
Compression mode : Lossy
Bits/(Pixel*Frame) : 0.344
Stream size : 1.89 GiB (82%)
Writing library : XviD 73
Audio
ID : 1
Format : AC-3
Format/Info : Audio Coding 3
Mode extension : CM (complete main)
Codec ID : 2000
Duration : 2h 29mn
Bit rate mode : Constant
Bit rate : 384 Kbps
Channel(s) : 6 channels
Channel positions : Front: L C R, Side: L R, LFE
Sampling rate : 48.0 KHz
Bit depth : 16 bits
Compression mode : Lossy
Stream size : 411 MiB (17%)
Alignment : Split accross interleaves
Interleave, duration : 42 ms (1.00 video frame)
Interleave, preload duration : 500 ms

Доп. информация

РИП
Исходник видео найден в домашней сети.
За дорогу Сербина спасибо priest86
За появление дорожки Ю.Сербина спасибо форуму Е180: dvd100, oleg-k, Nadoelo, Jiraya87, пуля, MyxAmoP, denis_mgn_1987, Некрасов, Guyver, luka69, urassiks, xerman13, olegsoleg, Letyoha3, SavineX78,, safreks, muha, dark1982, Chistobaev, masta, Loki1982, dir, Ramis, tide, GKillah, Iceman, 2vova2, AlexNT, YoGuRt-82 , Ochkarik1, markinscor, Nick - ЗНАКОМЫМ НАМ НЕ ПО НАСЛЫШКЕ ПАРНЯМ, постоянно радующим нас новыми переводами МЭТРОВ. Спасибо Юрию Сербину за отличный перевод.
Цитата:
За перевод Володарского большое спасибо пользователям форума hdtracker.org: 111o, Видео, -Джосс-, Xerman13, Schmulke, Jiraya87, Brown15, dunhill200, Chistobaev, lexal, dupl, kinobbk, karantin66, Luka69, nimph, therox, Pain_70, Role, TOMAN, KpucTo161, Диммон, SavineX, timur, furria62, hulahup
..

Скриншоты

Яндекс.Метрика
Рейтинг@Mail.ru