Моя большая греческая свадьба 2 / My Big Fat Greek Wedding 2 (2016) BDRip 720p | L

 

Создавать темы 14-Июн-2016 08:43

Моя большая греческая свадьба 2 / My Big Fat Greek Wedding 2
Страна: США Канада
Производство: Gold Circle Films, HBO Films, Playtone, Universal Pictures
Год выпуска: 2016
Жанр: мелодрама, комедия
Продолжительность: 01:33:53
Режиссер: Кирк Джонс
Автор сценария: Ниа Вардалос-В ролях: Ниа Вардалос, Джон Корбетт, Майкл Константин, Лэйни Казан, Андреа Мартин, Джиа Каридес, Джои Фатоне, Елена Кампурис
Описание: У главных героев первого фильма, Тулы Портокалос и Йена Миллера, подросла дочь, которая ждет не дождется уйти из-под крыла родителей...--Перевод: Любительский (многоголосый, закадровый) | Parovoz Production
Субтитры: английские (full + SDH)-Качество: BDRip 720p
Формат: МКV
Видео кодек: AVC
Аудио кодек: АС3 | DTS
Видео: 1280x536 (2.40:1), 23.976 fps, MPEG-4 AVC ~4 968 kbps avg
Аудио №1: 48.0 kHz, AC3 Dolby Digital, 2/0 (L,R) ch, ~384 kbps | RUS
Аудио №2: 48.0 kHz, DTS, 3/2 (L,C,R,l,r) + LFE ch, ~1 509 kbps | ENG
Формат субтитров UTF-8 Plain Text
Дата премьеры (мир): 15 марта 2016

Media Info

General
General
Unique ID : 184997607462873059426862206869032158741 (0x8B2D3E4163DFE6BABE8484479BD84615)
Complete name : Grechanka.2.2016.L.720p.BDRip.mkv
Format : Matroska
Format version : Version 4 / Version 2
File size : 4.59 GiB
Duration : 1h 33mn
Overall bit rate mode : Variable
Overall bit rate : 7 000 Kbps
Movie name : rustorrents.info
Encoded date : UTC 2016-06-13 15:21:28
Writing application : mkvmerge v6.1.0 ('Old Devil') built on Mar 4 2013 09:10:42
Writing library : libebml v1.3.0 + libmatroska v1.4.0
Video
ID : 1
Format : MPEG Video
Format version : Version 2
Format profile : [email protected] 1440
Format settings, BVOP : No
Format settings, Matrix : Default
Format settings, GOP : N=12
Codec ID : V_MPEG2
Codec ID/Info : MPEG 1 or 2 Video
Duration : 1h 33mn
Bit rate mode : Variable
Bit rate : 4 968 Kbps
Maximum bit rate : 9 000 Kbps
Width : 1 280 pixels
Height : 536 pixels
Display aspect ratio : 2.40:1
Frame rate mode : Constant
Frame rate : 23.976 fps
Color space : YUV
Chroma subsampling : 4:2:0
Bit depth : 8 bits
Scan type : Progressive
Compression mode : Lossy
Bits/(Pixel*Frame) : 0.302
Time code of first frame : 00:00:00:00
Time code source : Group of pictures header
GOP, Open/Closed : Open
GOP, Open/Closed of first fram : Closed
Stream size : 3.26 GiB (71%)
Title : rustorrents.info
Default : Yes
Forced : No
Audio #1
ID : 2
Format : AC-3
Format/Info : Audio Coding 3
Mode extension : CM (complete main)
Format settings, Endianness : Big
Codec ID : A_AC3
Duration : 1h 33mn
Bit rate mode : Constant
Bit rate : 384 Kbps
Channel(s) : 2 channels
Channel positions : Front: L R
Sampling rate : 48.0 KHz
Compression mode : Lossy
Stream size : 258 MiB (5%)
Language : Russian
Default : Yes
Forced : Yes
Audio #2
ID : 3
Format : DTS
Format/Info : Digital Theater Systems
Mode : 16
Format settings, Endianness : Big
Codec ID : A_DTS
Duration : 1h 33mn
Bit rate mode : Constant
Bit rate : 1 509 Kbps
Channel(s) : 6 channels
Channel positions : Front: L C R, Side: L R, LFE
Sampling rate : 48.0 KHz
Bit depth : 24 bits
Compression mode : Lossy
Stream size : 1 013 MiB (22%)
Language : English
Default : No
Forced : No
Text #1
ID : 4
Format : UTF-8
Codec ID : S_TEXT/UTF8
Codec ID/Info : UTF-8 Plain Text
Title : English regular
Language : English
Default : No
Forced : No
Text #2
ID : 5
Format : UTF-8
Codec ID : S_TEXT/UTF8
Codec ID/Info : UTF-8 Plain Text
Title : English sdh
Language : English
Default : No
Forced : No
Menu
00:00:00.000 : en:00:00:00.000
00:05:40.924 : en:00:05:40.924
00:10:40.431 : en:00:10:40.431
00:16:29.488 : en:00:16:29.488
00:20:45.578 : en:00:20:45.578
00:25:25.274 : en:00:25:25.274
00:30:37.127 : en:00:30:37.127
00:34:18.306 : en:00:34:18.306
00:39:20.984 : en:00:39:20.984
00:45:16.714 : en:00:45:16.714
00:50:53.050 : en:00:50:53.050
00:55:24.112 : en:00:55:24.112
01:00:03.058 : en:01:00:03.058
01:06:48.213 : en:01:06:48.213
01:09:38.132 : en:01:09:38.132
01:13:38.581 : en:01:13:38.581
01:19:09.995 : en:01:19:09.995
01:21:30.803 : en:01:21:30.803
01:24:08.877 : en:01:24:08.877
01:29:48.550 : en:01:29:48.550

Скриншоты

Яндекс.Метрика
Рейтинг@Mail.ru