Вышибала (Серии 1—16 из 16) (Сергей Крутин) [2016, криминальная драма, HDTVRip]

 

Создавать темы 12-Июн-2016 13:08

--Вышибала--
  • Год выпуска: 2016
  • Страна: Россия / «Пирамида»
  • Жанр: криминальная драма
  • Продолжительность: 16 х ~00:45:00
  • Перевод: Не требуется-
  • Режиссёр: Сергей Крутин-
  • В ролях: Дмитрий Марьянов, Анастасия Панина, Гела Месхи, Мария Машкова, Александр Наумов, Владимир Фекленко, Надежда Маркина, Константин Юшкевич, Ян Цапник, Семен Трескунов...-
  • Криминальная драма о человеке, который после длительного тюремного заключения возвращается в родной город. Он хочет разобраться со своим прошлым и вернуть себе любимую, которая теперь живет с его врагом.
    15 лет назад юный самбист Александр Чижов (Гела Месхи) по прозвищу Чижик попал в преступную группировку. Лидер банды Гуня — Николай Регунов (Дмитрий Марьянов) — сразу обратил внимание на спортсмена и стал поддерживать его. Чижик был искренне предан Гуне и компании. Он оставил спорт, у него появились деньги, статус и любимая девушка Наташа (Анастасия Панина).
    Все изменилось, когда одна из бандитских сходок закончилась стрельбой. Защищаясь, Гуня убил троих. Попав в оцепление полиции, Чижик попросил Гуню отдать ему пистолет, чтобы взять вину на себя…
    Отсидев срок и выйдя на свободу, Чижик узнает, что теперь Гуня – влиятельный бизнесмен и хозяин города, а его любимая Наташа стала женой и компаньоном Регунова. Вместе они воспитывают сына, отцом которого является Чижик. В честь возвращения друга Регунов устраивает шикарный прием. На вечеринке Чижик и Наташа встречаются и понимают, что прошлое никуда не делось. «Чижик-Пыжик, где ты был?» — вырывается у Наташи их старая присказка, и чувства вспыхивают с новой силой…
    Чижик устраивается в коллекторское бюро «пугалом для должников». Благодаря смекалке и образу брутального вышибалы он приобретает репутацию умелого переговорщика. Но внезапно его втягивают в войну между Гуней и начальником местного УВД Головачом (Александр Наумов).
    -
  • Премьера в России: 6 июня 2016 (НТВ)--
  • --
  • Качество видео: HDTVRip
  • Формат видео: AVI
  • Видео кодек: XviD
  • Аудио кодек: MP3
  • Видео: 624x352 (1.78:1), 25.000 fps, XviD MPEG-4, ~720 kbps avg, 0.131 bit/pixel
  • Аудио: 48.0 kHz, MPEG Audio Layer 3, 2 ch, ~128.00 kbps avg
  • Субтитры: нет
--

Media Info

General
Complete name : W:\O.S.A.\Торренты\Завершенные торренты\Vyshibala.2016.XviD.HDTVRip.by.GeneralFilm\Serija.01.avi
Format : AVI
Format/Info : Audio Video Interleave
File size : 279 MiB
Duration : 45mn 28s
Overall bit rate : 858 Kbps
Writing application : VirtualDubMod 1.5.10.3 | www.virtualdub-fr.org || (build 2550/release)
Writing library : VirtualDubMod build 2550/release
Video
ID : 0
Format : MPEG-4 Visual
Format profile : Advanced [email protected]
Format settings, BVOP : 1
Format settings, QPel : No
Format settings, GMC : No warppoints
Format settings, Matrix : Custom
Codec ID : XVID
Codec ID/Hint : XviD
Duration : 45mn 28s
Bit rate : 720 Kbps
Width : 624 pixels
Height : 352 pixels
Display aspect ratio : 16:9
Frame rate : 25.000 fps
Color space : YUV
Chroma subsampling : 4:2:0
Bit depth : 8 bits
Scan type : Progressive
Compression mode : Lossy
Bits/(Pixel*Frame) : 0.131
Stream size : 234 MiB (84%)
Writing library : XviD 73
Audio
ID : 1
Format : MPEG Audio
Format version : Version 1
Format profile : Layer 3
Codec ID : 55
Codec ID/Hint : MP3
Duration : 45mn 28s
Bit rate mode : Constant
Bit rate : 128 Kbps
Channel(s) : 2 channels
Sampling rate : 48.0 KHz
Compression mode : Lossy
Stream size : 41.6 MiB (15%)
Alignment : Aligned on interleaves
Interleave, duration : 40 ms (1.00 video frame)
Interleave, preload duration : 504 ms
Writing library : LAME3.99r
Encoding settings : -m s -V 4 -q 0 -lowpass 17 -b 128
---- --
Яндекс.Метрика
Рейтинг@Mail.ru