Маша и медведь. Машкины страшилки / Сезон 1 / Серии: 1-13 (Олег Ужинов, ...) [2015 г., Мультсериал, Анимация, Детский, WEB-DL 1080p]

 

Создавать темы 12-Июн-2016 07:49

Маша и медведь.
Машкины страшилки

Будет не страшно
-- Производство: Россия
Режиссер / Телекомпания: «АНИМАККОРД»
Жанр: Мультсериал, Анимация, Детский
Год выпуска: 2015 г.Режиссер: Олег Ужинов, Денис Червяцов, Олег Кузовков, Ринат Газизов
Роли озвучивали: Алина Кукушкина, Эдуард Назаров, Борис КутневичПеревод: Не требуется-Описание:
Новый проект студии "Анимаккорд" - "Машкины страшилки"... Все дети боятся темноты. Маша раньше тоже так её боялась, что приходилось ей по ночам с фонариком сидеть! Но однажды Маша придумала сказочку про маленького лесного жучка, который тоже боялся темноты... Трепещите! Маша взялась за новый жанр - теперь она рассказывает страшилки!-Сезон: 1
Серии: 1-13 серий
Продолжительность: ~ 00:06:00 мин серия-Качество видео: WEB-DL (1080p)
Контейнер: MKV
Видео кодек: AVC ([email protected]/* */)
Аудио кодек: AAC
Видео: AVC at 2591 Кбит/сек: 1920 x 1080 (1.778) at 25.000 fps
Аудио: AC-3 at 192 Кбит/сек: 2 канала, 48,0 КГцCубтитры: отсутствуют-

Список серий:

  • Душераздирающая повесть о тёмном лесе и маленьком жучке.
  • Жутко-страшное придание о том, как один мальчик боялся умываться.
  • Чудовищная быль о том, как некоторые боятся чудовищ
  • Тревожный сказ о потерявшемся котёнке
  • О Новогодних стишках
  • О суеверной девочке
  • Угрюмый завет о сопливом мальчике
  • Очень мрачное сказание о девочке, которая боялась зверушек
  • Ужасающая история про бабушку и внучка
  • Полный отчаяния миф об исторической ошибке
  • Панически невыносимая легенда о букашках
  • Тревожный сказ про Бабку-Ёжку
  • Зловещая Сага о Девочке, которая боялась докторов
-

MI:

Общее
Уникальный идентификатор                 : 196507787995369841580649173150843250263 (0x93D605F8560A8618B0706D09B0EBA657)
Полное имя                               : E:\_Сериалы\МультСериалы\Маша и Медведь\Маша и медведь. Машкины страшилки (2014-...)_1080\001. Про жучка.mkv
Формат                                   : Matroska
Версия формата                           : Version 4 / Version 2
Размер файла                             : 117 Мбайт
Продолжительность                        : 5 м. 45 с.
Режим общего битрейта                    : Переменный
Общий поток                              : 2839 Кбит/сек
Дата кодирования                         : UTC 2014-12-26 18:50:13
Программа кодирования                    : mkvmerge v7.4.0 ('Circles') 32bit built on Dec 12 2014 12:10:09
Библиотека кодирования                   : libebml v1.3.0 + libmatroska v1.4.1
DURATION                                 : 00:05:45.984000000
NUMBER_OF_FRAMES                         : 10812
NUMBER_OF_BYTES                          : 8303616
_STATISTICS_WRITING_APP                  : mkvmerge v7.4.0 ('Circles') 32bit built on Dec 12 2014 12:10:09
_STATISTICS_WRITING_DATE_UTC             : 2014-12-26 18:50:13
_STATISTICS_TAGS                         : BPS DURATION NUMBER_OF_FRAMES NUMBER_OF_BYTES
Видео
Идентификатор                            : 1
Формат                                   : AVC
Формат/Информация                        : Advanced Video Codec
Профиль формата                          : [email protected]
Параметр CABAC формата                   : Да
Параметр ReFrames формата                : 2 кадра
Идентификатор кодека                     : V_MPEG4/ISO/AVC
Продолжительность                        : 5 м. 46 с.
Вид битрейта                             : Переменный
Битрейт                                  : 2591 Кбит/сек
Максимальный битрейт                     : 40,0 Мбит/сек
Ширина                                   : 1920 пикселей
Высота                                   : 1080 пикселей
Соотношение сторон                       : 16:9
Режим частоты кадров                     : Постоянный
Частота кадров                           : 25,000 кадров/сек
Цветовое пространство                    : YUV
Субдискретизация насыщенности            : 4:2:0
Битовая глубина                          : 8 бит
Тип развёртки                            : Прогрессивная
Бит/(Пиксели*Кадры)                      : 0.050
Размер потока                            : 107 Мбайт (91%)
Заголовок                                : Про жучка.х264.WEB-DL.1080p |A.D.|
Язык                                     : Russian
Default                                  : Да
Forced                                   : Нет
Аудио
Идентификатор                            : 2
Формат                                   : AC-3
Формат/Информация                        : Audio Coding 3
Расширение режима                        : CM (complete main)
Параметр Endianness формата              : Big
Идентификатор кодека                     : A_AC3
Продолжительность                        : 5 м. 45 с.
Вид битрейта                             : Постоянный
Битрейт                                  : 192 Кбит/сек
Каналы                                   : 2 канала
Расположение каналов                     : Front: L R
Частота                                  : 48,0 КГц
Битовая глубина                          : 16 бит
Метод сжатия                             : С потерями
Размер потока                            : 7,92 Мбайт (7%)
Заголовок                                : AC3,2.0 192 Kbps
Язык                                     : Russian
Default                                  : Да
Forced                                   : Нет

Скриншот c названием мультфильма

Скриншоты

Яндекс.Метрика
Рейтинг@Mail.ru