На дальней заставе (2016) HDTVRip ( серии 1-20 из 20)

 

Создавать темы 12-Июн-2016 07:45

- На дальней заставе (2015) HDTVRip - Производство: Россия / Студия "Герион", ООО "Кинофильм Продакшн"
Жанр: Мелодрама-Режиссер: Андрей Хрулев
Актеры: Иван Жвакин, Иван Николаев, Валерия Федорович, Алексей Огурцов, Дарья Михайлова, Михаил Хмуров, Марина Митрофанова, Евгений Пронин, Александра Гайдук, Анатолий Голуб, Наталья Капитонова, Елизавета Шукова, Ольга Бурлакова, Евгений Ивкович, Александр Павлов, Антон Жуков, Илья Сотиков, Николай Стонько, Павел Лотарев, Илья Финевич, Александр Гелейша, Шамхал Хачатурян, Дмитрий Егоров, Дмитрий Климович, Роман Новак, Дмитрий Давидович, Артем Курень, Эрик Абрамович, Александр Тарасов, Андрей Королевич, Алексей Качан, Елена Дубровская, Виктор Васильев, Владимир Мищанчук, Владимир Воронков, Артур Федорович, Александр Бранкевич, Татьяна Чердынцева, Пётр Янданов, Алайбек Тойчубеков, Роман Хан, Илья Капанец.
Описание:
В центре сюжета — история выпускника погранучилища, молодого лейтенанта Саши Прохорова — балагура, любимца женщин, «гусара». Окружающие считают его прожигателем жизни, способного только на легкомысленные поступки. Однако те, кто хорошо знаком с героем, знают, что на самом деле «гусар» — смелый, честный и верный. Саша влюблен в Леночку, дочь генерала. Леночка любит Сашу. Но счастью влюбленных мешает друг и однокурсник Саши, Толя Мищенков, типичный «штабист» и приспособленец. Толя надеется, что женитьба на Леночке ускорит его карьеру, не намерен отступать и все время подстраивает Саше ловушки. Отец Леночки, генерал, тоже настроен против дерзкого «гусара» — он хочет, чтобы дочь вышла за блестящего Мищенкова. Поэтому генерал отправляет Сашу на дальнюю погранзаставу. Впрочем, Саша этому назначению только рад: в отличие от «штабиста» Мищенкова, он хочет настоящей службы на границе. Леночка обещает приехать к Саше. Однако время и расстояние вносят коррективы в планы влюбленных. Рядом с ними появляются новые люди и новые искушения. Мищенков не оставляет надежды жениться на Леночке и продолжает плести интриги. Генерал через своего друга, начальника погранзаставы следит за службой Саши и не готов простить тому ни малейшей ошибки. Да и сама Леночка, столкнувшись с суровой жизнью на границе, начинает отдаляться от Саши. Сохранит ли Саша честное имя и свою любовь?-Продолжительность: 00:47:00 серия
Качество видео: HDTVRip
Видео: Xvid, 720x400, ~1414 Кбит/сек
Аудио: AC3, 2 ch, 192 Кбит/с

MI

Общее
Полное имя                               : E:\сереалы\Na.dalnej.zastave.2015.HDTVRip\01.Na.dalnej.zastave.2015.HDTVRip.Files-x.avi
Формат                                   : AVI
Формат/Информация                        : Audio Video Interleave
Размер файла                             : 549 Мбайт
Продолжительность                        : 47 м.
Общий поток                              : 1616 Кбит/сек
Программа кодирования                    : VirtualDubModRus 1.5.10.2 (build 2542/release)
Библиотека кодирования                   : VirtualDubMod build 2542/release
Видео
Идентификатор                            : 0
Формат                                   : MPEG-4 Visual
Профиль формата                          : Advanced [email protected]
Параметр BVOP формата                    : 1
Параметр QPel формата                    : Нет
Параметр GMC формата                     : Без точки перехода
Параметр матрицы формата                 : Выборочная
Идентификатор кодека                     : XVID
Идентификатор кодека/Подсказка           : XviD
Продолжительность                        : 47 м.
Битрейт                                  : 1414 Кбит/сек
Ширина                                   : 720 пикселей
Высота                                   : 400 пикселей
Соотношение сторон                       : 16:9
Частота кадров                           : 25,000 кадров/сек
Цветовое пространство                    : YUV
Субдискретизация насыщенности            : 4:2:0
Битовая глубина                          : 8 бит
Тип развёртки                            : Прогрессивная
Метод сжатия                             : С потерями
Бит/(Пиксели*Кадры)                      : 0.196
Размер потока                            : 481 Мбайт (88%)
Библиотека кодирования                   : XviD 73
Аудио
Идентификатор                            : 1
Формат                                   : AC-3
Формат/Информация                        : Audio Coding 3
Расширение режима                        : CM (complete main)
Параметр Endianness формата              : Big
Идентификатор кодека                     : 2000
Продолжительность                        : 47 м.
Вид битрейта                             : Постоянный
Битрейт                                  : 192 Кбит/сек
Каналы                                   : 2 канала
Расположение каналов                     : Front: L R
Частота                                  : 48,0 КГц
Битовая глубина                          : 16 бит
Метод сжатия                             : С потерями
Размер потока                            : 65,3 Мбайт (12%)
Выравнивание                             : Разделение по промежуткам
Продолжительность промежутка             : 40  мс. (1,00 видеокадр)
Время предзагрузки промежутка            : 500  мс.
Скриншоты:
Яндекс.Метрика
Рейтинг@Mail.ru