Дивергент, глава 3: За стеной / Allegiant (2016) DVDScr | Line

 

Создавать темы 10-Июн-2016 17:12

Информация о фильме
Название: Дивергент, глава 3: За стеной
Оригинальное название: Allegiant
Год выпуска: 2016
Жанр: Фантастика, боевик, приключения
Выпущено: США, Lionsgate, Red Wagon Productions, Summit Entertainment
Режиссер: Роберт Швентке
В ролях: Шейлин Вудли, Тео Джеймс, Энсел Элгорт, Зои Кравиц, Майлз Теллер, Джефф Дэниелс, Наоми Уоттс, Мэгги Кью, Билл Скарсгард, Кейнан Лонсдейл, Надиа Хилкер, Октавия Спенсер, Дэниэл Дэ Ким, Джонни Уэстон, Энди Бин, Рэй Стивенсон, Мекхай Файфер, Джозеф Дэвид-Джонс, Эшли Джадд, Джош Давендек
О фильме: Трис, Фор и их друзья приняли решение выбраться за пределы Чикаго. Герои стремятся выяснить, что же на самом деле происходит за стеной города, которая долгий период закрывала их от внешнего мира. Компания рассчитывала обрести свободу, но вместо этого оказывается в Бюро Генетической Защиты. Они должны быстро разобраться, кому можно доверять, так как битва, разгорающаяся за стенами города, угрожает всему человечеству. Чтобы выжить, Трис придется сделать непростой выбор между мужеством, верностью, любовью и необходимостью идти на жертвы.
-Продолжительность: 01:58:00
Перевод: Дублированный (Чистый звук)
Файл
Качество: DVDScr
Видео: XviD, 1370 Кбит/с, 720x304
Аудио: AC3, 6 ch, 384 Кбит/с
Семпл-Без рекламы и китайских хардсабов.
Исходник: DVD-5
NTSC 16:9 (720x480) VBR-Лицензия iTunes ожидается после 20 июня.
Раздача временная. Для тех, кто не любит рекламные вставки и иероглифы.-

MediaInfo

General
Complete name : Allegiant.2016.D.DVDScr.Enigma.avi
Format : AVI
Format/Info : Audio Video Interleave
File size : 1.46 GiB
Duration : 1h 58mn
Overall bit rate : 1 765 Kbps
Writing application : VirtualDubMod 1.5.10.3 | www.virtualdub-fr.org || (build 2550/release)
Writing library : VirtualDubMod build 2550/release
Video
ID : 0
Format : MPEG-4 Visual
Format profile : Advanced [email protected]
Format settings, BVOP : 2
Format settings, QPel : No
Format settings, GMC : No warppoints
Format settings, Matrix : Custom
Codec ID : XVID
Codec ID/Hint : XviD
Duration : 1h 58mn
Bit rate : 1 370 Kbps
Width : 720 pixels
Height : 304 pixels
Display aspect ratio : 2.35:1
Frame rate : 29.970 fps
Color space : YUV
Chroma subsampling : 4:2:0
Bit depth : 8 bits
Scan type : Progressive
Compression mode : Lossy
Bits/(Pixel*Frame) : 0.209
Stream size : 1.13 GiB (78%)
Writing library : XviD 73
Audio
ID : 1
Format : AC-3
Format/Info : Audio Coding 3
Mode extension : CM (complete main)
Format settings, Endianness : Big
Codec ID : 2000
Duration : 1h 58mn
Bit rate mode : Constant
Bit rate : 384 Kbps
Channel(s) : 6 channels
Channel positions : Front: L C R, Side: L R, LFE
Sampling rate : 48.0 KHz
Bit depth : 16 bits
Compression mode : Lossy
Stream size : 324 MiB (22%)
Alignment : Split accross interleaves
Interleave, duration : 33 ms (1.00 video frame)
Interleave, preload duration : 500 ms

Скриншоты:

Яндекс.Метрика
Рейтинг@Mail.ru