Место встречи изменить нельзя (1979) DVDRip | 60 fps

 

Создавать темы 08-Июн-2016 23:12

Место встречи изменить нельзя (1979) DVDRip | 60 fps- Название: Место встречи изменить нельзя
Год выхода: 1979
Жанр: Боевик, криминал, детектив, приключения
Режиссер: Станислав Говорухин
Сценарий: Аркадий Вайнер, Георгий Вайнер
Директор фильма: Джемила Панибрат
В ролях:
Владимир Высоцкий, Владимир Конкин, Сергей Юрский, Зиновий Гердт, Наталья Фатеева, Лев Перфилов, Александр Белявский, Виктор Павлов, Армен Джигарханян, Леонид Куравлёв, Светлана Светличная, Евгений Евстигнеев, Александр Абдулов, Лариса Удовиченко, Иван Бортник, Станислав Садальский, Андрей Градов, Валерия Заклунная, Евгений Шутов, Александр Милютин, Наталья Данилова, Алексей Миронов, Всеволод Абдулов, Евгений Леонов-Гладышев, Нина Корниенко, Павел Махотин, Владлен Паулус, Людмила Давыдова, Екатерина Градова, Олег Савосин, Владимир Жариков, Юнона Карева, Николай Слесарев, Наталья Петрова, Нина Озорнина, Татьяна Ткач, Наталия Ченчик, Наталья Крачковская, Валентин Кулик
--О фильме:
Убийства, засады, погони, перестрелки — на фоне послевоенной Москвы. Сотрудники МУРа против таинственной и неуловимой банды «Черная кошка». Демобилизовавшийся офицер разведки Володя Шарапов начинает работать в отделе по борьбе с бандитизмом. Одно из первых дел, в расследовании которых он участвует, — убийство Ларисы Груздевой…-Страна: СССР
Продолжительность: 5 x ~ 01:15:00--Файл
Кодек: MPEG4/ISO/AVC H.264
Формат: MKV
Качество: DVDRip 60 fps
Видео: 744 x 572 (1.301) | 60.000 fps | 3.0 Мбит/сек
Аудио: AC-3 | 5.1 | 48 kHz | 384 Кбит/сек | 16 bit |

MedifInfo

[color=#996600]Видео
Идентификатор : 1
Формат : AVC
Формат/Информация : Advanced Video Codec
Профиль формата : [email protected]
Параметр CABAC формата : Да
Параметр ReFrames формата : 3 кадра
Параметр GOP формата : M=3, N=72
Идентификатор кодека : V_MPEG4/ISO/AVC
Продолжительность : 1 ч. 6 м.
Вид битрейта : Переменный
Битрейт : 2924 Кбит/сек
Максимальный битрейт : 3000 Кбит/сек
Ширина : 744 пикселя
Высота : 572 пикселя
Соотношение сторон : 4:3
Режим частоты кадров : Постоянный
Частота кадров : 60,000 кадров/сек
Стандарт вещания : PAL
Цветовое пространство : YUV
Субдискретизация насыщенности : 4:2:0
Битовая глубина : 8 бит
Тип развёртки : Прогрессивная
Бит/(Пиксели*Кадры) : 0.114
Размер потока : 1,36 Гбайт (87%)
Язык : English
Default : Да
Forced : Нет
Основные цвета : BT.601 NTSC
Характеристики трансфера : BT.601
Коэффициенты матрицы : BT.601
colour_range : Limited
Аудио
Идентификатор : 2
Формат : AC-3
Формат/Информация : Audio Coding 3
Расширение режима : CM (complete main)
Параметр Endianness формата : Big
Идентификатор кодека : A_AC3
Продолжительность : 1 ч. 6 м.
Вид битрейта : Постоянный
Битрейт : 384 Кбит/сек
Каналы : 6 каналов
Расположение каналов : Front: L C R, Side: L R, LFE
Частота : 48,0 КГц
Битовая глубина : 16 бит
Метод сжатия : С потерями
Размер потока : 183 Мбайт (11%)
Заголовок : AC3
Default : Да
Forced : Нет[/color]

Скриншоты:

1 - серия2 - серия3 - серия4 - серия5 - серия
Яндекс.Метрика
Рейтинг@Mail.ru