Операция «Ы» и другие приключения Шурика (1965) BDRip-AVC | 60 fps

 

Создавать темы 08-Июн-2016 23:05

Операция «Ы» и другие приключения Шурика (1965) BDRip-AVC | 60 fps- Название: Операция «Ы» и другие приключения Шурика
Год выхода: 1965
Жанр: мелодрама, комедия, криминал
Режиссер: Леонид Гайдай
Сценарий: Леонид Гайдай, Яков Костюковский, Морис Слободской
Директор фильма: Петр Феллер
В ролях:
Александр Демьяненко, Наталья Селезнёва, Алексей Смирнов, Юрий Никулин, Евгений Моргунов, Георгий Вицин, Михаил Пуговкин, Виктор Павлов, Владимир Басов, Рина Зеленая--Сюжет:

Фильм состоит из трех новелл, объединенных фигурой главного героя Шурика, попадающего в самые невероятные ситуации. В «Напарнике» Шурик сражается с хулиганом Верзилой; в «Наваждении» весьма оригинальным способом готовится к экзамену; в «Операции «Ы» предотвращает «ограбление века», на которое идет знаменитая тройка — Балбес, Трус и Бывалый.
-Страна: СССР
Продолжительность: 01:34:33
Файл
Кодек: MPEG4/ISO/AVC H.264
Формат: MKV
Качество: BDRip-AVC | 60 fps
Видео: 768x584 (4:3) | 59.940 fps | 3.7 Мбит/сек
Аудио: AC3 | 5.1 | 48 kHz | 640 kbps | 16 bit |
Субтитры: русские (Полные)

MedifInfo

Video
ID : 1
Format : AVC
Format/Info : Advanced Video Codec
Format profile : [email protected]
Format settings, CABAC : Yes
Format settings, ReFrames : 4 frames
Codec ID : V_MPEG4/ISO/AVC
Duration : 1h 34mn
Bit rate : 3 700 Kbps
Width : 768 pixels
Height : 584 pixels
Display aspect ratio : 4:3
Frame rate : 59.940 fps
Color space : YUV
Chroma subsampling : 4:2:0
Bit depth : 8 bits
Scan type : Progressive
Bits/(Pixel*Frame) : 0.138
Stream size : 2.39 GiB (83%)
Writing library : x264 core 146 r2538 121396c
Encoding settings : cabac=1 / ref=3 / deblock=1:0:0 / analyse=0x3:0x113 / me=umh / subme=9 / psy=1 / psy_rd=1.00:0.10 / mixed_ref=1 / me_range=32 / chroma_me=1 / trellis=2 / 8x8dct=1 / cqm=0 / deadzone=21,11 / fast_pskip=0 / chroma_qp_offset=-3 / threads=12 / lookahead_threads=3 / sliced_threads=0 / nr=0 / decimate=1 / interlaced=0 / bluray_compat=0 / constrained_intra=0 / bframes=16 / b_pyramid=2 / b_adapt=2 / b_bias=0 / direct=3 / weightb=1 / open_gop=0 / weightp=2 / keyint=250 / keyint_min=25 / scenecut=40 / intra_refresh=0 / rc_lookahead=40 / rc=2pass / mbtree=0 / bitrate=3700 / ratetol=1.0 / qcomp=0.60 / qpmin=0 / qpmax=69 / qpstep=4 / cplxblur=20.0 / qblur=0.5 / vbv_maxrate=14000 / vbv_bufsize=14000 / nal_hrd=none / filler=0 / ip_ratio=1.40 / pb_ratio=1.30 / aq=1:1.00
Language : English
Default : Yes
Forced : No
Audio
ID : 2
Format : AC-3
Format/Info : Audio Coding 3
Mode extension : CM (complete main)
Codec ID : A_AC3
Duration : 1h 34mn
Bit rate mode : Constant
Bit rate : 640 Kbps
Channel(s) : 6 channels
Channel positions : Front: L C R, Side: L R, LFE
Sampling rate : 48.0 KHz
Bit depth : 16 bits
Compression mode : Lossy
Stream size : 433 MiB (15%)
Title : Оригинал
Language : Russian
Default : No
Forced : No
Text
ID : 3
Format : UTF-8
Codec ID : S_TEXT/UTF8
Codec ID/Info : UTF-8 Plain Text
Title : Полные
Language : Russian
Default : No
Forced : No
Menu
00:00:00.000 : en:Chapter 1
00:03:46.935 : en:Chapter 2
00:08:52.615 : en:Chapter 3
00:13:58.629 : en:Chapter 4
00:17:53.322 : en:Chapter 5
00:25:03.502 : en:Chapter 6
00:31:35.894 : en:Chapter 7
00:35:16.948 : en:Chapter 8
00:41:43.584 : en:Chapter 9
00:45:58.630 : en:Chapter 10
00:52:43.160 : en:Chapter 11
00:57:14.055 : en:Chapter 12
01:03:11.037 : en:Chapter 13
01:06:33.489 : en:Chapter 14
01:13:24.608 : en:Chapter 15
01:15:08.212 : en:Chapter 16
01:20:51.513 : en:Chapter 17
01:29:02.003 : en:Chapter 18
01:34:28.079 : en:Chapter 19

Скриншоты:

Создавать темы 09-Июн-2016 14:18 (спустя 15 часов)

Классные, незабываемые фильмы Гайдая. Смотрятся в любом возрасте.
Яндекс.Метрика
Рейтинг@Mail.ru