[ Сегодня на трекере фрилич! Идет свободное скачивание без начисления Download ]

Вышибала (Серии 1—16 из 16) (Сергей Крутин) [2016, криминальная драма, HDTVRip]

 

Создавать темы 08-Июн-2016 10:53

--Вышибала--
  • Год выпуска: 2016
  • Страна: Россия / «Пирамида»
  • Жанр: криминальная драма
  • Продолжительность: 16 х ~00:45:00
  • Перевод: Не требуется-
  • Режиссёр: Сергей Крутин-
  • В ролях: Дмитрий Марьянов, Анастасия Панина, Гела Месхи, Мария Машкова, Александр Наумов, Владимир Фекленко, Надежда Маркина, Константин Юшкевич, Ян Цапник, Семен Трескунов...-
  • Криминальная драма о человеке, который после длительного тюремного заключения возвращается в родной город. Он хочет разобраться со своим прошлым и вернуть себе любимую, которая теперь живет с его врагом.
    15 лет назад юный самбист Александр Чижов (Гела Месхи) по прозвищу Чижик попал в преступную группировку. Лидер банды Гуня — Николай Регунов (Дмитрий Марьянов) — сразу обратил внимание на спортсмена и стал поддерживать его. Чижик был искренне предан Гуне и компании. Он оставил спорт, у него появились деньги, статус и любимая девушка Наташа (Анастасия Панина).
    Все изменилось, когда одна из бандитских сходок закончилась стрельбой. Защищаясь, Гуня убил троих. Попав в оцепление полиции, Чижик попросил Гуню отдать ему пистолет, чтобы взять вину на себя…
    Отсидев срок и выйдя на свободу, Чижик узнает, что теперь Гуня – влиятельный бизнесмен и хозяин города, а его любимая Наташа стала женой и компаньоном Регунова. Вместе они воспитывают сына, отцом которого является Чижик. В честь возвращения друга Регунов устраивает шикарный прием. На вечеринке Чижик и Наташа встречаются и понимают, что прошлое никуда не делось. «Чижик-Пыжик, где ты был?» — вырывается у Наташи их старая присказка, и чувства вспыхивают с новой силой…
    Чижик устраивается в коллекторское бюро «пугалом для должников». Благодаря смекалке и образу брутального вышибалы он приобретает репутацию умелого переговорщика. Но внезапно его втягивают в войну между Гуней и начальником местного УВД Головачом (Александр Наумов).
    -
  • Премьера в России: 6 июня 2016 (НТВ)--
  • --
  • Качество видео: HDTVRip
  • Формат видео: AVI
  • Видео кодек: XviD
  • Аудио кодек: АС3
  • Видео: 720x400 (1.80:1), 25.000 fps, XviD MPEG-4, ~1500 kbps avg, 0.208 bit/pixel
  • Аудио: 48.0 kHz, AC3 Dolby Digital, 2/0 (L,R) ch, ~192.00 kbps avg
  • Субтитры: нет
--

Внимание ! Раздача ведётся путём добавления новых серий !!!

Внимание! Раздача ведётся путём добавления новых серий; при каждом добавлении создаётся новый торрент. Чтобы начать докачку новой серии, пользователям необходимо сделать следующее:
(1) остановить скачивание,раздачу,
(2) удалить старый торрент у себя из клиента (старые серии удалять не надо),
(3) скачать новый торрент и запустить его у себя в клиенте вместо старого, при этом указать клиенту путь в старую папку куда и должно происходить скачивание новых серий.
Ваш клиент при этом должен произвести хеширование (проверку) старой папки (если не производит сами - помогите ему сделать это), и будет докачивать только те серии которых у вас ещё нет. Старые серии при этом не удаляются, а продолжают раздаваться!
Eсли вы уже удалили старые серии, то предотвратить повторную закачку старых серий можно, отжав галочку в соответствующих местах при запуске нового торрента. По возможности, желательно не удалять старые серии как можно дольше чтобы релизёр не столько продолжал раздавать старые серии, а смог сконцентрироваться на новых.

Media Info

General
Complete name : W:\O.S.A.\Торренты\Завершенные торренты\Vychibala.2016.HDTVRip.Files-x\01.Vychibala.2016.HDTVRip.Files-x.avi
Format : AVI
Format/Info : Audio Video Interleave
File size : 550 MiB
Duration : 45mn 16s
Overall bit rate : 1 699 Kbps
Writing application : VirtualDubModRus 1.5.10.2 (build 2542/release)
Writing library : VirtualDubMod build 2542/release
Video
ID : 0
Format : MPEG-4 Visual
Format profile : Advanced [email protected]
Format settings, BVOP : 1
Format settings, QPel : No
Format settings, GMC : No warppoints
Format settings, Matrix : Custom
Codec ID : XVID
Codec ID/Hint : XviD
Duration : 45mn 16s
Bit rate : 1 498 Kbps
Width : 720 pixels
Height : 400 pixels
Display aspect ratio : 16:9
Frame rate : 25.000 fps
Color space : YUV
Chroma subsampling : 4:2:0
Bit depth : 8 bits
Scan type : Progressive
Compression mode : Lossy
Bits/(Pixel*Frame) : 0.208
Stream size : 485 MiB (88%)
Writing library : XviD 73
Audio
ID : 1
Format : AC-3
Format/Info : Audio Coding 3
Mode extension : CM (complete main)
Codec ID : 2000
Duration : 45mn 16s
Bit rate mode : Constant
Bit rate : 192 Kbps
Channel(s) : 2 channels
Channel positions : Front: L R
Sampling rate : 48.0 KHz
Bit depth : 16 bits
Compression mode : Lossy
Stream size : 62.2 MiB (11%)
Alignment : Split accross interleaves
Interleave, duration : 40 ms (1.00 video frame)
Interleave, preload duration : 500 ms
---- --
Яндекс.Метрика
Рейтинг@Mail.ru