Создание MULTI-USB видео урок от BELLA

 

Создавать темы 07-Июн-2016 21:33

Создание MULTI-USB видео урок от BELLA
Год выпуска: 2016
Версия: Авторская от BELLA
Общяя продолжительность (36 минут)
Доп. информация: Видео-урок по созданию Multi-USB (Носителя)
Введение Всем приветик,вам предоставлен видео-урок,как создать загрузочный флеш накопитель,с несколькими операционными системами семейства Windows,и не только,также могут быть добавлены OS-Linux!!! Так же мы добавим ко всему -этому добру,загрузчик StopSms-(CORE-2 Особая благодарочка,девочке). Плюсы такой флешки (каждая записанная ось,использует непременно свой родной загрузчик) .К минусам отнесу,значительный размер! Вам понадобиться пустой накопитель минимум 8 гигобайт обёмам -(это только для парочки систем),я использую для таких целей,32 гигабайта,она постоянно со мной!!!!

Медиа-инфо:

Общее
Полное имя                               : F:\Video.mp4
Формат                                   : MPEG-4
Профиль формата                          : Base Media
Идентификатор кодека                     : isom (mp41)
Размер файла                             : 321 Мбайт
Продолжительность                        : 32 м.
Режим общего битрейта                    : Переменный
Общий поток                              : 1376 Кбит/сек
Дата кодирования                         : UTC 2016-05-30 05:28:26
Дата пометки                             : UTC 2016-05-30 05:28:26
Программа кодирования                    : BandiMp4Muxer 1.0
Видео
Идентификатор                            : 1
Формат                                   : AVC
Формат/Информация                        : Advanced Video Codec
Профиль формата                          : [email protected]/*  */
Параметр CABAC формата                   : Нет
Параметр ReFrames формата                : 1 кадр
Идентификатор кодека                     : avc1
Идентификатор кодека/Информация          : Advanced Video Coding
Продолжительность                        : 32 м.
Битрейт                                  : 1172 Кбит/сек
Ширина                                   : 1920 пикселей
Высота                                   : 1080 пикселей
Соотношение сторон                       : 16:9
Режим частоты кадров                     : Переменный
Частота кадров                           : 29,189 кадров/сек
Минимальная частота кадров               : 1,154 кадр/сек
Максимальная частота кадров              : 120,120 кадров/сек
Цветовое пространство                    : YUV
Субдискретизация насыщенности            : 4:2:0
Битовая глубина                          : 8 бит
Тип развёртки                            : Прогрессивная
Бит/(Пиксели*Кадры)                      : 0.019
Размер потока                            : 273 Мбайт (85%)
Язык                                     : English
Дата кодирования                         : UTC 2016-05-30 05:28:26
Дата пометки                             : UTC 2016-05-30 05:28:26
Аудио
Идентификатор                            : 2
Формат                                   : AAC
Формат/Информация                        : Advanced Audio Codec
Профиль формата                          : LC
Идентификатор кодека                     : 40
Продолжительность                        : 32 м.
Вид битрейта                             : Переменный
Битрейт                                  : 192 Кбит/сек
Максимальный битрейт                     : 246 Кбит/сек
Каналы                                   : 1 канал
Расположение каналов                     : Front: C
Частота                                  : 48,0 КГц
Частота кадров                           : 46,875 кадров/сек (1024 spf)
Метод сжатия                             : С потерями
Размер потока                            : 45,6 Мбайт (14%)
Язык                                     : English
Дата кодирования                         : UTC 2016-05-30 05:28:26
Дата пометки                             : UTC 2016-05-30 05:28:26

Состав

= Видео-урок
= WinSetupFromUSB-1-6-Final

Как начать работать

Содержимое iso ,извлечь на свободное пространство жесткого диска!!

Скриншоты:

Яндекс.Метрика
Рейтинг@Mail.ru