Бородач [01-14 из 14] (2016) WEB-DLRip-AVC от ExKinoRay

 

Создавать темы 05-Июн-2016 12:24

Информация о фильме
Название: Бородач
Год выхода: 2016
Жанр: Комедия
Режиссер: Заур Болотаев
В ролях: Михаил Галустян, Демис Карибов, Дмитрий Никулин, Анна Уколова, Артур Казберов, Евгений Казанцев, Мария Староторжская, Михаил Куряев, Александр Луканичев, Дмитрий Меденников
О фильме:
Обаятельный, но невезучий охранник Александр Родионович Бородач впутывается вместе со своими друзьями в невообразимые истории, пытается покорить сердце стриптизерши Ирины Скоробейниковой, но неминуемо оказывается в отделении полиции, где его с пристрастием допрашивает начальник в исполнении резидента Comedy Club Демиса Карибидиса.
Выпущено: Россия, «Comedy Club Production», ТНТ
Продолжительность: 14 х ~ 00:23:00
Перевод: Не требуется-Файл
Кодек: х264
Качество: WEB-DLRip - AVC
Свойства видео: 1024x576 (16:9), 25 fps, x264, 1900 Kbps, 0.129 bit/pixel
Свойства аудио: 48,0 kHz, Audio Coding 3, 2 ch, ~192 kbps avg-Релиз от:
Rip by: Vovan366-

Инфо

Общее
Уникальный идентификатор : 191330906817452578454990768229094707979 (0x8FF0FE059492AEC285A6629B2A86D30B)
Полное имя : D:ВидеоBorodaЧ.01 sezon. 2016.WEB-DLRip-AVC by Vovan366(ExKinoRay)Borodach.01.s01.2016.WEBDLRip(AVC) by Vovan366(ExKinoRay).mkv
Формат : Matroska
Версия формата : Version 2
Размер файла : 334 Мбайт
Продолжительность : 22 м.
Общий поток : 2093 Кбит/сек
Дата кодирования : UTC 2016-06-03 11:05:26
Программа кодирования : mkvmerge v6.1.0 ('Old Devil') built on Mar 4 2013 09:10:42
Библиотека кодирования : libebml v1.3.0 + libmatroska v1.4.0
Видео
Идентификатор : 1
Формат : AVC
Формат/Информация : Advanced Video Codec
Профиль формата : [email protected]
Параметр CABAC формата : Да
Параметр ReFrames формата : 10 кадров
Идентификатор кодека : V_MPEG4/ISO/AVC
Продолжительность : 22 м.
Битрейт : 1900 Кбит/сек
Ширина : 1024 пикселя
Высота : 576 пикселей
Соотношение сторон : 16:9
Режим частоты кадров : Постоянный
Частота кадров : 25,000 кадров/сек
Цветовое пространство : YUV
Субдискретизация насыщенности : 4:2:0
Битовая глубина : 8 бит
Тип развёртки : Прогрессивная
Бит/(Пиксели*Кадры) : 0.129
Размер потока : 296 Мбайт (89%)
Библиотека кодирования : x264 core 130 r2273 b3065e6
Настройки программы : cabac=1 / ref=10 / deblock=1:-2:-3 / analyse=0x3:0x113 / me=umh / subme=9 / psy=1 / psy_rd=1.00:0.10 / mixed_ref=1 / me_range=32 / chroma_me=1 / trellis=2 / 8x8dct=1 / cqm=0 / deadzone=21,11 / fast_pskip=1 / chroma_qp_offset=-3 / threads=6 / lookahead_threads=1 / sliced_threads=0 / nr=0 / decimate=0 / interlaced=0 / bluray_compat=0 / constrained_intra=0 / bframes=8 / b_pyramid=2 / b_adapt=2 / b_bias=0 / direct=3 / weightb=1 / open_gop=0 / weightp=2 / keyint=240 / keyint_min=24 / scenecut=40 / intra_refresh=0 / rc_lookahead=40 / rc=2pass / mbtree=1 / bitrate=1900 / ratetol=1.0 / qcomp=0.60 / qpmin=0 / qpmax=69 / qpstep=4 / cplxblur=20.0 / qblur=0.5 / ip_ratio=1.40 / aq=1:1.00
Default : Да
Forced : Нет
Основные цвета : BT.709
Характеристики трансфера : BT.709
Коэффициенты матрицы : BT.709
Аудио
Идентификатор : 2
Формат : AC-3
Формат/Информация : Audio Coding 3
Расширение режима : CM (complete main)
Параметр Endianness формата : Big
Идентификатор кодека : A_AC3
Продолжительность : 22 м.
Вид битрейта : Постоянный
Битрейт : 192 Кбит/сек
Каналы : 2 канала
Расположение каналов : Front: L R
Частота : 48,0 КГц
Битовая глубина : 16 бит
Метод сжатия : С потерями
Размер потока : 30,6 Мбайт (9%)
Default : Да
Forced : Нет

Скриншоты

Яндекс.Метрика
Рейтинг@Mail.ru