Михаил Задорнов. Евреи, японцы, русские и конечно американцы (2016) WEBRip

 

Создавать темы 05-Июн-2016 07:33

- Михаил Задорнов. Евреи, японцы, русские и конечно американцы (2016) WEBRip - Телекомпания: РЕН-Жанр: Юмористический концерт, сатира
Режиссер: Михаил Задорнов-Описание:
Михаил Задорнов делится самыми интересными историями о людях разных национальностей. В этом выпуске: Уникальный случай в Израиле. Задорнов про евреев. Синай - это еврейский Крым? Египетские ночи. Часы не варить! Как японец потерял косоглазие. Как узбеки смеялись над американцами? Правда про американцев. Европейские женщины и инквизиция. Три ложные легенды про русских.
Продолжительность: ~ 00:51:25
Качество видео: WEBRip
Субтитры: Отсутствуют
Видео: MPEG4, XviD, 704x400 (16:9), 25.000 fps, 1 367 Kbps (0.194 bit/pixel)
Аудио: MP3, 48.0 KHz, 2 ch, 128 Kbps, CBR

Mediainfo:

Формат                                   : AVI
Формат/Информация                        : Audio Video Interleave
Размер файла                             : 553 Мбайт
Продолжительность                        : 51 м.
Общий поток                              : 1504 Кбит/сек
Программа кодирования                    : VirtualDubMod 1.5.10.3 | [url=http://www.virtualdub-fr.org]www.virtualdub-fr.org[/url] || (build 2550/release)
Библиотека кодирования                   : VirtualDubMod build 2550/release
Видео
Идентификатор                            : 0
Формат                                   : MPEG-4 Visual
Профиль формата                          : [email protected]
Параметр BVOP формата                    : Нет
Параметр QPel формата                    : Нет
Параметр GMC формата                     : Без точки перехода
Параметр матрицы формата                 : Default (H.263)
Идентификатор кодека                     : XVID
Идентификатор кодека/Подсказка           : XviD
Продолжительность                        : 51 м.
Битрейт                                  : 1367 Кбит/сек
Ширина                                   : 704 пикселя
Высота                                   : 400 пикселей
Соотношение сторон                       : 16:9
Частота кадров                           : 25,000 кадров/сек
Цветовое пространство                    : YUV
Субдискретизация насыщенности            : 4:2:0
Битовая глубина                          : 8 бит
Тип развёртки                            : Прогрессивная
Метод сжатия                             : С потерями
Бит/(Пиксели*Кадры)                      : 0.194
Размер потока                            : 503 Мбайт (91%)
Библиотека кодирования                   : Lavc53.33.0
Аудио
Идентификатор                            : 1
Формат                                   : MPEG Audio
Версия формата                           : Version 1
Профиль формата                          : Layer 3
Идентификатор кодека                     : 55
Идентификатор кодека/Подсказка           : MP3
Продолжительность                        : 51 м.
Вид битрейта                             : Постоянный
Битрейт                                  : 128 Кбит/сек
Каналы                                   : 2 канала
Частота                                  : 48,0 КГц
Метод сжатия                             : С потерями
Размер потока                            : 47,1 Мбайт (9%)
Выравнивание                             : Соединение по промежуткам
Продолжительность промежутка             : 40  мс. (1,00 видеокадр)
Время предзагрузки промежутка            : 504  мс.
Библиотека кодирования                   : LAME3.99r
Настройки программы                      : -m s -V 4 -q 2 -lowpass 17 -b 128
Скриншоты:
Яндекс.Метрика
Рейтинг@Mail.ru