Степные волки (Серии 1—24 из 24) (Евгений Сологалов, Дмитрий Матов) [2016, криминальная драма, HDTVRip]

 

Создавать темы 04-Июн-2016 14:39

--Степные волки--
  • Год выпуска: 2016
  • Страна: Россия / «Форвард Фильм», «Центр кинопроизводства»
  • Жанр: криминальная драма
  • Продолжительность: 24 х ~00:46:00
  • Перевод: Не требуется-
  • Режиссёр: Евгений Сологалов, Дмитрий Матов-
  • В ролях: Юрий Чурсин, Михаил Гаврилов, Борис Миронов, Татьяна Лютаева, Константин Глушков, Олеся Фаттахова, Виктор Соловьев, Антон Ескин, Георгий Громов, Алеса Качер, Александр Суворов...-
  • Действие сериала разворачивается в небольшом городе Степные Курганы, куда в командировку отправляется молодой следователь Андрей Дымов (Михаил Гаврилов). Он едет на поиски своего пропавшего друга и коллеги. В поездку он берет свою жену Катерину (Олеся Фаттахова).
    В городе заправляет банда «Степные волки», которой руководит семейный клан Волковых. Чтобы продвинуться в расследовании, Андрей вынужден играть по правилам бандитов и идти на сомнительные компромиссы. Едва Дымов понимает, что готов дать бой «волкам», судьба обрушивает на него новый удар: его супруга влюбилась в наследника криминального клана — Ивана Волкова (Юрий Чурсин).
    -
  • Премьера в России: 25 мая 2016 (НТВ)--
  • --
  • Качество видео: HDTVRip
  • Формат видео: AVI
  • Видео кодек: XviD
  • Аудио кодек: MP3
  • Видео: 688x384 (1.80:1), 25.000 fps, XviD MPEG-4, ~1005 kbps avg, 0.152 bit/pixel
  • Аудио: 48.0 kHz, MPEG Audio Layer 3, 2 ch, ~128.00 kbps avg
  • Субтитры: нет
--

Media Info

General
Complete name : W:\O.S.A.\Торренты\Завершенные торренты\Stepnye.Volki.2014.XviD.HDTVRip.by.GeneralFilm\01.seriya.avi
Format : AVI
Format/Info : Audio Video Interleave
File size : 371 MiB
Duration : 45mn 25s
Overall bit rate : 1 142 Kbps
Writing application : VirtualDubMod 1.5.10.3 | www.virtualdub-fr.org || (build 2550/release)
Writing library : VirtualDubMod build 2550/release
Video
ID : 0
Format : MPEG-4 Visual
Format profile : Advanced [email protected]
Format settings, BVOP : 1
Format settings, QPel : No
Format settings, GMC : No warppoints
Format settings, Matrix : Custom
Codec ID : XVID
Codec ID/Hint : XviD
Duration : 45mn 25s
Bit rate : 1 004 Kbps
Width : 688 pixels
Height : 384 pixels
Display aspect ratio : 16:9
Frame rate : 25.000 fps
Color space : YUV
Chroma subsampling : 4:2:0
Bit depth : 8 bits
Scan type : Progressive
Compression mode : Lossy
Bits/(Pixel*Frame) : 0.152
Stream size : 326 MiB (88%)
Writing library : XviD 73
Audio
ID : 1
Format : MPEG Audio
Format version : Version 1
Format profile : Layer 3
Codec ID : 55
Codec ID/Hint : MP3
Duration : 45mn 25s
Bit rate mode : Constant
Bit rate : 128 Kbps
Channel(s) : 2 channels
Sampling rate : 48.0 KHz
Compression mode : Lossy
Stream size : 41.6 MiB (11%)
Alignment : Aligned on interleaves
Interleave, duration : 40 ms (1.00 video frame)
Interleave, preload duration : 504 ms
Writing library : LAME3.99r
Encoding settings : -m s -V 4 -q 0 -lowpass 17 -b 128
---- --
Яндекс.Метрика
Рейтинг@Mail.ru